(Progressive House, Progressive Trance) [CDM] Lovestern Galaktika Project Meets Le Petit Sam - Loca Galaktika - 2000, FLAC (tracks+.cue), lossless

Ответить на тему
Статистика раздачи [Обновить пиров]
Размер:  187 MB   |    Зарегистрирован:  17 дней   |    Скачан:  0 раз

Полного источника не было: Никогда

 
   
 
 
 
Автор Сообщение

chi5o.com

Создавать темы 07-Янв-2019 12:29

[Цитировать]

Lovestern Galaktika Project Meets Le Petit Sam / Loca Galaktika
Жанр: Progressive House, Progressive Trance
Носитель: CDM
Год издания: 2000
Издатель (лейбл): Dance Division
Номер по каталогу: DAD 669577 2
Аудиокодек: FLAC (*.flac)
Тип рипа: tracks+.cue
Битрейт аудио: lossless
Продолжительность: 24:33
Источник (релизер): свой рип
Наличие сканов в содержимом раздачи: да
Треклист:
01. Lovestern Galaktika Project Meets Le Petit Sam - Loca Galaktika (Daylight Mix) (3:31)
02. Lovestern Galaktika Project Meets Le Petit Sam - Loca Galaktika (Nightlight Mix) (7:05)
03. Lovestern Galaktika Project Meets Le Petit Sam - Loca Galaktika (Polvo Mix) (7:43)
04. Lovestern Galaktika Project Meets Le Petit Sam - Loca Galaktika (Tim J Remix) (6:13)

Лог создания рипа

Exact Audio Copy V1.3 from 2. September 2016
EAC extraction logfile from 18. December 2018, 0:10
Lovestern Galaktika Project Meets Le Petit Sam / Loca Galaktika
Used drive : ASUS SDRW-08D2S-U Adapter: 8 ID: 5
Read mode : SecureUtilize accurate stream : YesDefeat audio cache : YesMake use of C2 pointers : No
Read offset correction : 6Overread into Lead-In and Lead-Out : NoFill up missing offset samples with silence : YesDelete leading and trailing silent blocks : NoNull samples used in CRC calculations : YesUsed interface : Installed external ASPI interfaceGap handling : Appended to previous track
Used output format : User Defined EncoderSelected bitrate : 128 kBit/sQuality : HighAdd ID3 tag : NoCommand line compressor : D:\flac-1.3.2-win\win64\flac.exeAdditional command line options : -8 -V -T "ARTIST=%artist%" -T "TITLE=%title%" -T "ALBUM=%albumtitle%" -T "DATE=%year%" -T "TRACKNUMBER=%tracknr%" -T "GENRE=%genre%" -T "COMMENT=ripped by Andy aka yetiisyou" %source%
TOC of the extracted CD
Track | Start | Length | Start sector | End sector --------------------------------------------------------- 1 | 0:00.00 | 3:31.25 | 0 | 15849 2 | 3:31.25 | 7:05.25 | 15850 | 47749 3 | 10:36.50 | 7:42.50 | 47750 | 82449 4 | 18:19.25 | 6:13.37 | 82450 | 110461
Track 1
Filename E:\!Ripped by Andy aka yetiisyou\Lovestern Galaktika Project Meets Le Petit Sam - Loca Galaktika [DAD 669577 2] [2000]\01. Lovestern Galaktika Project Meets Le Petit Sam - Loca Galaktika (Daylight Mix).wav
Pre-gap length 0:00:02.00
Peak level 98.0 % Extraction speed 2.6 X Track quality 100.0 % Test CRC 60F3DBD8 Copy CRC 60F3DBD8 Accurately ripped (confidence 5) [1B7730A1] (AR v2) Copy OK
Track 2
Filename E:\!Ripped by Andy aka yetiisyou\Lovestern Galaktika Project Meets Le Petit Sam - Loca Galaktika [DAD 669577 2] [2000]\02. Lovestern Galaktika Project Meets Le Petit Sam - Loca Galaktika (Nightlight Mix).wav
Pre-gap length 0:00:01.20
Peak level 98.3 % Extraction speed 3.2 X Track quality 100.0 % Test CRC ADDF68E7 Copy CRC ADDF68E7 Accurately ripped (confidence 5) [982E1CFB] (AR v2) Copy OK
Track 3
Filename E:\!Ripped by Andy aka yetiisyou\Lovestern Galaktika Project Meets Le Petit Sam - Loca Galaktika [DAD 669577 2] [2000]\03. Lovestern Galaktika Project Meets Le Petit Sam - Loca Galaktika (Polvo Mix).wav
Pre-gap length 0:00:01.20
Peak level 98.0 % Extraction speed 3.8 X Track quality 100.0 % Test CRC 591A80C3 Copy CRC 591A80C3 Accurately ripped (confidence 5) [ECED34DF] (AR v2) Copy OK
Track 4
Filename E:\!Ripped by Andy aka yetiisyou\Lovestern Galaktika Project Meets Le Petit Sam - Loca Galaktika [DAD 669577 2] [2000]\04. Lovestern Galaktika Project Meets Le Petit Sam - Loca Galaktika (Tim J Remix).wav
Pre-gap length 0:00:01.43
Peak level 98.8 % Extraction speed 3.0 X Track quality 99.9 % Test CRC 8A588198 Copy CRC 8A588198 Accurately ripped (confidence 5) [87AFE2CD] (AR v2) Copy OK
All tracks accurately ripped
No errors occurred
End of status report
---- CUETools DB Plugin V2.1.6
[CTDB TOCID: Jnva__Nv0K9rQqjhKWHKZsI_4cc-] foundSubmit result: Jnva__Nv0K9rQqjhKWHKZsI_4cc- has been confirmedTrack | CTDB Status 1 | (17/17) Accurately ripped 2 | (17/17) Accurately ripped 3 | (17/17) Accurately ripped 4 | (17/17) Accurately ripped
==== Log checksum CA33443D3340149EE33B0632D786A7852371D6ADB1B0568E324C2171B8CCAC15 ====

Содержание индексной карты (.CUE)

REM DATE 2000REM DISCID 1C05C004REM COMMENT "ExactAudioCopy v1.3"PERFORMER "Lovestern Galaktika Project Meets Le Petit Sam"TITLE "Loca Galaktika"REM COMPOSER ""FILE "01. Lovestern Galaktika Project Meets Le Petit Sam - Loca Galaktika (Daylight Mix).wav" WAVE TRACK 01 AUDIO TITLE "Loca Galaktika (Daylight Mix)" PERFORMER "Lovestern Galaktika Project Meets Le Petit Sam" REM COMPOSER "" ISRC DEE860000577 INDEX 01 00:00:00 TRACK 02 AUDIO TITLE "Loca Galaktika (Nightlight Mix)" PERFORMER "Lovestern Galaktika Project Meets Le Petit Sam" REM COMPOSER "" ISRC DEE860000578 INDEX 00 03:30:05FILE "02. Lovestern Galaktika Project Meets Le Petit Sam - Loca Galaktika (Nightlight Mix).wav" WAVE INDEX 01 00:00:00 TRACK 03 AUDIO TITLE "Loca Galaktika (Polvo Mix)" PERFORMER "Lovestern Galaktika Project Meets Le Petit Sam" REM COMPOSER "" ISRC DEE860000579 INDEX 00 07:04:05FILE "03. Lovestern Galaktika Project Meets Le Petit Sam - Loca Galaktika (Polvo Mix).wav" WAVE INDEX 01 00:00:00 TRACK 04 AUDIO TITLE "Loca Galaktika (Tim J Remix)" PERFORMER "Lovestern Galaktika Project Meets Le Petit Sam" REM COMPOSER "" ISRC DEE860000576 INDEX 00 07:41:07FILE "04. Lovestern Galaktika Project Meets Le Petit Sam - Loca Galaktika (Tim J Remix).wav" WAVE INDEX 01 00:00:00


[chi5o.com]_t_5661569.torrent
Торрент: Зарегистрирован ·  [ 2019-01-07 11:59 ] ·  e1e6a2c610bd76eb42ae671ff896f79571847364

16 KB

Статус: проверено
Скачан: 0 раз
Размер: 187 MB
Оценка: 
(Голосов: 0)
Сказали спасибо: 0  Спасибо
Похожие темы
[Профиль]    [ЛС]
Показать сообщения:    
Ответить на тему

Текущее время: Сегодня 15:45

Часовой пояс: GMT + 7



Вы не можете начинать темы
Вы не можете отвечать на сообщения
Вы не можете редактировать свои сообщения
Вы не можете удалять свои сообщения
Вы не можете голосовать в опросах
Вы не можете прикреплять файлы к сообщениям
Вы можете скачивать файлы


mai 2017 | SPSS Statistics v24.0.0. | See more