(House) [CD] VA - House Club Hottest. 004. Marco Sonke - 2003, FLAC (tracks+.cue), lossless

Ответить на тему
Статистика раздачи [Обновить пиров]
Размер:  625 MB   |    Зарегистрирован:  17 дней   |    Скачан:  0 раз

Полного источника не было: Никогда

 
   
 
 
 
Автор Сообщение

chi5o.com

Создавать темы 07-Янв-2019 12:29

[Цитировать]

House Club Hottest. 004. Marco Sonke
Жанр: House
Носитель: CD
Год издания: 2003
Издатель (лейбл): FFM Dance Department
Номер по каталогу: 2987-2
Аудиокодек: FLAC (*.flac)
Тип рипа: tracks+.cue
Битрейт аудио: lossless
Продолжительность: 01:16:30
Источник (релизер): свой рип
Наличие сканов в содержимом раздачи: да
Треклист:
01. Bent - Magic Love (Ashley Beedle's Black Magic Vocal Mix) (4:07)
02. Luomo - Tessio (Moonbootica Remix) (4:29)
03. Saffron Hill - My Love Is Always There (Tim Deluxe Summer Mix) (3:52)
04. DJ Chus & David Penn - Baila (Mediterranean Vocal Mix) (3:10)
05. Sandy Rivera - This Feeling (Luca Cassani Mix) (4:24)
06. Knabberbox - Rezpect (Original Mix) (2:51)
07. Mambana - Libre (Axwell Vocal Mix) (5:11)
08. Johnny Corporate - Sunday Shouting (Erick's Subliminal Mix) (2:58)
09. Deee-Lite - Groove Is In The Heart (Meeting The Minds Mix) (5:00)
10. Paul Johnson - Follow This Beat (Mousse T. Psycho Disco) (4:10)
11. John Ciafone - Everyday (DJ Gregory Mix) (4:40)
12. Junior Jack - E Samba (Original Club Mix) (4:39)
13. DJ Oliver - Free My Soul (Main Mix) (3:40)
14. Gus Gus - David (Darren Emerson's Underwater Mix) (4:42)
15. Chocolate Puma - A Star Is Born (The Scumfrog Edit) (4:02)
16. Lee-Cabrera - Shake It (Original) (3:47)
17. Wackside - Le Freak (Montilla's Freakin' Mix) (4:24)
18. 4Tune 500 - Dancing In The Dark (Original Vocal Mix) (3:40)
19. Nightcrawlers - Push The Feeling On 2003 (Terry's Vocal Mix) (2:43)

Лог создания рипа

Exact Audio Copy V1.3 from 2. September 2016
EAC extraction logfile from 18. December 2018, 13:11
Marco Sönke / House Club Hottest. 004
Used drive : ASUS DRW-24B5ST Adapter: 6 ID: 0
Read mode : SecureUtilize accurate stream : YesDefeat audio cache : YesMake use of C2 pointers : No
Read offset correction : 6Overread into Lead-In and Lead-Out : NoFill up missing offset samples with silence : YesDelete leading and trailing silent blocks : NoNull samples used in CRC calculations : YesUsed interface : Installed external ASPI interfaceGap handling : Appended to previous track
Used output format : User Defined EncoderSelected bitrate : 128 kBit/sQuality : HighAdd ID3 tag : NoCommand line compressor : D:\flac-1.3.2-win\win64\flac.exeAdditional command line options : -8 -V -T "ARTIST=%artist%" -T "TITLE=%title%" -T "ALBUM=%albumtitle%" -T "DATE=%year%" -T "TRACKNUMBER=%tracknr%" -T "GENRE=%genre%" -T "COMMENT=ripped by Andy aka yetiisyou" %source%
TOC of the extracted CD
Track | Start | Length | Start sector | End sector --------------------------------------------------------- 1 | 0:00.00 | 4:06.41 | 0 | 18490 2 | 4:06.41 | 4:29.26 | 18491 | 38691 3 | 8:35.67 | 3:52.01 | 38692 | 56092 4 | 12:27.68 | 3:10.06 | 56093 | 70348 5 | 15:37.74 | 4:24.36 | 70349 | 90184 6 | 20:02.35 | 2:51.11 | 90185 | 103020 7 | 22:53.46 | 5:11.36 | 103021 | 126381 8 | 28:05.07 | 2:57.54 | 126382 | 139710 9 | 31:02.61 | 5:00.16 | 139711 | 162226 10 | 36:03.02 | 4:10.26 | 162227 | 181002 11 | 40:13.28 | 4:39.39 | 181003 | 201966 12 | 44:52.67 | 4:38.59 | 201967 | 222875 13 | 49:31.51 | 3:39.67 | 222876 | 239367 14 | 53:11.43 | 4:42.13 | 239368 | 260530 15 | 57:53.56 | 4:01.64 | 260531 | 278669 16 | 61:55.45 | 3:47.12 | 278670 | 295706 17 | 65:42.57 | 4:23.49 | 295707 | 315480 18 | 70:06.31 | 3:39.57 | 315481 | 331962 19 | 73:46.13 | 2:43.29 | 331963 | 344216
Track 1
Filename E:\!Ripped by Andy aka yetiisyou\VA - Marco Sonke - House Club Hottest. 004 [2987-2] [2003]\01. Bent - Magic Love (Ashley Beedle's Black Magic Vocal Mix).wav
Pre-gap length 0:00:02.00
Peak level 99.4 % Extraction speed 3.8 X Track quality 100.0 % Test CRC E30EAC75 Copy CRC E30EAC75 Accurately ripped (confidence 2) [1C0885B7] (AR v2) Copy OK
Track 2
Filename E:\!Ripped by Andy aka yetiisyou\VA - Marco Sonke - House Club Hottest. 004 [2987-2] [2003]\02. Luomo - Tessio (Moonbootica Remix).wav
Peak level 99.2 % Extraction speed 4.2 X Track quality 100.0 % Test CRC 8DE63C0B Copy CRC 8DE63C0B Accurately ripped (confidence 2) [F92E8594] (AR v2) Copy OK
Track 3
Filename E:\!Ripped by Andy aka yetiisyou\VA - Marco Sonke - House Club Hottest. 004 [2987-2] [2003]\03. Saffron Hill - My Love Is Always There (Tim Deluxe Summer Mix).wav
Peak level 99.2 % Extraction speed 4.5 X Track quality 100.0 % Test CRC 500A99A9 Copy CRC 500A99A9 Accurately ripped (confidence 2) [4F703AC0] (AR v2) Copy OK
Track 4
Filename E:\!Ripped by Andy aka yetiisyou\VA - Marco Sonke - House Club Hottest. 004 [2987-2] [2003]\04. DJ Chus & David Penn - Baila (Mediterranean Vocal Mix).wav
Peak level 99.0 % Extraction speed 4.5 X Track quality 100.0 % Test CRC 04FD75F5 Copy CRC 04FD75F5 Accurately ripped (confidence 2) [24254635] (AR v2) Copy OK
Track 5
Filename E:\!Ripped by Andy aka yetiisyou\VA - Marco Sonke - House Club Hottest. 004 [2987-2] [2003]\05. Sandy Rivera - This Feeling (Luca Cassani Mix).wav
Peak level 99.2 % Extraction speed 5.1 X Track quality 100.0 % Test CRC A296BF54 Copy CRC A296BF54 Accurately ripped (confidence 2) [EE8432ED] (AR v2) Copy OK
Track 6
Filename E:\!Ripped by Andy aka yetiisyou\VA - Marco Sonke - House Club Hottest. 004 [2987-2] [2003]\06. Knabberbox - Rezpect (Original Mix).wav
Peak level 98.8 % Extraction speed 5.0 X Track quality 100.0 % Test CRC 06606ED1 Copy CRC 06606ED1 Accurately ripped (confidence 2) [EC060E77] (AR v2) Copy OK
Track 7
Filename E:\!Ripped by Andy aka yetiisyou\VA - Marco Sonke - House Club Hottest. 004 [2987-2] [2003]\07. Mambana - Libre (Axwell Vocal Mix).wav
Peak level 99.8 % Extraction speed 5.6 X Track quality 100.0 % Test CRC 90755B88 Copy CRC 90755B88 Accurately ripped (confidence 2) [2D947D0E] (AR v2) Copy OK
Track 8
Filename E:\!Ripped by Andy aka yetiisyou\VA - Marco Sonke - House Club Hottest. 004 [2987-2] [2003]\08. Johnny Corporate - Sunday Shouting (Erick's Subliminal Mix).wav
Peak level 99.4 % Extraction speed 5.4 X Track quality 100.0 % Test CRC 9DB1224D Copy CRC 9DB1224D Accurately ripped (confidence 2) [E267E410] (AR v2) Copy OK
Track 9
Filename E:\!Ripped by Andy aka yetiisyou\VA - Marco Sonke - House Club Hottest. 004 [2987-2] [2003]\09. Deee-Lite - Groove Is In The Heart (Meeting The Minds Mix).wav
Peak level 99.5 % Extraction speed 6.1 X Track quality 100.0 % Test CRC 7FB90838 Copy CRC 7FB90838 Accurately ripped (confidence 2) [292B08F6] (AR v2) Copy OK
Track 10
Filename E:\!Ripped by Andy aka yetiisyou\VA - Marco Sonke - House Club Hottest. 004 [2987-2] [2003]\10. Paul Johnson - Follow This Beat (Mousse T. Psycho Disco).wav
Peak level 99.2 % Extraction speed 5.0 X Track quality 99.9 % Test CRC 28AD0217 Copy CRC 28AD0217 Accurately ripped (confidence 2) [9B47EFE7] (AR v2) Copy OK
Track 11
Filename E:\!Ripped by Andy aka yetiisyou\VA - Marco Sonke - House Club Hottest. 004 [2987-2] [2003]\11. John Ciafone - Everyday (DJ Gregory Mix).wav
Peak level 99.6 % Extraction speed 5.4 X Track quality 99.9 % Test CRC DC5A87E4 Copy CRC DC5A87E4 Accurately ripped (confidence 2) [65283BC2] (AR v2) Copy OK
Track 12
Filename E:\!Ripped by Andy aka yetiisyou\VA - Marco Sonke - House Club Hottest. 004 [2987-2] [2003]\12. Junior Jack - E Samba (Original Club Mix).wav
Peak level 99.8 % Extraction speed 6.8 X Track quality 100.0 % Test CRC 7BFD5591 Copy CRC 7BFD5591 Accurately ripped (confidence 2) [28F21133] (AR v2) Copy OK
Track 13
Filename E:\!Ripped by Andy aka yetiisyou\VA - Marco Sonke - House Club Hottest. 004 [2987-2] [2003]\13. DJ Oliver - Free My Soul (Main Mix).wav
Peak level 99.7 % Extraction speed 6.7 X Track quality 100.0 % Test CRC 18C3184B Copy CRC 18C3184B Accurately ripped (confidence 2) [DFC71235] (AR v2) Copy OK
Track 14
Filename E:\!Ripped by Andy aka yetiisyou\VA - Marco Sonke - House Club Hottest. 004 [2987-2] [2003]\14. Gus Gus - David (Darren Emerson's Underwater Mix).wav
Peak level 99.3 % Extraction speed 5.9 X Track quality 99.9 % Test CRC F53A7887 Copy CRC F53A7887 Accurately ripped (confidence 2) [58CDF657] (AR v2) Copy OK
Track 15
Filename E:\!Ripped by Andy aka yetiisyou\VA - Marco Sonke - House Club Hottest. 004 [2987-2] [2003]\15. Chocolate Puma - A Star Is Born (The Scumfrog Edit).wav
Peak level 99.4 % Extraction speed 4.8 X Track quality 99.9 % Test CRC 8E3CFFAF Copy CRC 8E3CFFAF Cannot be verified as accurate (confidence 3) [7DBD9F1B], AccurateRip returned [E6500263] (AR v2) Copy OK
Track 16
Filename E:\!Ripped by Andy aka yetiisyou\VA - Marco Sonke - House Club Hottest. 004 [2987-2] [2003]\16. Lee-Cabrera - Shake It (Original).wav
Peak level 99.1 % Extraction speed 7.4 X Track quality 100.0 % Test CRC B8CC076B Copy CRC B8CC076B Accurately ripped (confidence 2) [5A7EEC69] (AR v2) Copy OK
Track 17
Filename E:\!Ripped by Andy aka yetiisyou\VA - Marco Sonke - House Club Hottest. 004 [2987-2] [2003]\17. Wackside - Le Freak (Montilla's Freakin' Mix).wav
Peak level 99.5 % Extraction speed 7.6 X Track quality 100.0 % Test CRC DB57807C Copy CRC DB57807C Accurately ripped (confidence 2) [8C992FE7] (AR v2) Copy OK
Track 18
Filename E:\!Ripped by Andy aka yetiisyou\VA - Marco Sonke - House Club Hottest. 004 [2987-2] [2003]\18. 4Tune 500 - Dancing In The Dark (Original Vocal Mix).wav
Peak level 99.1 % Extraction speed 6.0 X Track quality 99.9 % Test CRC B21895E9 Copy CRC B21895E9 Accurately ripped (confidence 2) [FA406E0B] (AR v2) Copy OK
Track 19
Filename E:\!Ripped by Andy aka yetiisyou\VA - Marco Sonke - House Club Hottest. 004 [2987-2] [2003]\19. Nightcrawlers - Push The Feeling On 2003 (Terry's Vocal Mix).wav
Peak level 98.8 % Extraction speed 7.1 X Track quality 100.0 % Test CRC 1DE37454 Copy CRC 1DE37454 Accurately ripped (confidence 2) [550D73B4] (AR v2) Copy OK
18 track(s) accurately ripped 1 track(s) could not be verified as accurate
Some tracks could not be verified as accurate
No errors occurred
End of status report
---- CUETools DB Plugin V2.1.6
[CTDB TOCID: Vs18DVycPIBauHO.9I36JUNPpRk-] foundSubmit result: Vs18DVycPIBauHO.9I36JUNPpRk- has been submittedTrack | CTDB Status 1 | (12/12) Accurately ripped 2 | (12/12) Accurately ripped 3 | (12/12) Accurately ripped 4 | (11/12) Accurately ripped 5 | (12/12) Accurately ripped 6 | (12/12) Accurately ripped 7 | (12/12) Accurately ripped 8 | (12/12) Accurately ripped 9 | (12/12) Accurately ripped 10 | (12/12) Accurately ripped 11 | (12/12) Accurately ripped 12 | (12/12) Accurately ripped 13 | (12/12) Accurately ripped 14 | (12/12) Accurately ripped 15 | (11/12) Differs in 67 samples @01:27:17-01:27:18 16 | (12/12) Accurately ripped 17 | (12/12) Accurately ripped 18 | (12/12) Accurately ripped 19 | (12/12) Accurately rippedIf you are sure that your rip contains errors, you can use CUETools to repair it.
==== Log checksum C0DA494000D4E7CC9BF12C19524321B40B70FB90FCF7C34668BBBCC64CD48A04 ====

Содержание индексной карты (.CUE)

REM DATE 2003REM DISCID 3411ED13REM COMMENT "ExactAudioCopy v1.3"PERFORMER "Marco Sonke"TITLE "House Club Hottest. 004"REM COMPOSER ""FILE "01. Bent - Magic Love (Ashley Beedle's Black Magic Vocal Mix).wav" WAVE TRACK 01 AUDIO TITLE "Magic Love (Ashley Beedle's Black Magic Vocal Mix)" PERFORMER "Bent" REM COMPOSER "" FLAGS DCP INDEX 01 00:00:00FILE "02. Luomo - Tessio (Moonbootica Remix).wav" WAVE TRACK 02 AUDIO TITLE "Tessio (Moonbootica Remix)" PERFORMER "Luomo" REM COMPOSER "" FLAGS DCP INDEX 01 00:00:00FILE "03. Saffron Hill - My Love Is Always There (Tim Deluxe Summer Mix).wav" WAVE TRACK 03 AUDIO TITLE "My Love Is Always There (Tim Deluxe Summer Mix)" PERFORMER "Saffron Hill" REM COMPOSER "" FLAGS DCP INDEX 01 00:00:00FILE "04. DJ Chus & David Penn - Baila (Mediterranean Vocal Mix).wav" WAVE TRACK 04 AUDIO TITLE "Baila (Mediterranean Vocal Mix)" PERFORMER "DJ Chus & David Penn" REM COMPOSER "" FLAGS DCP INDEX 01 00:00:00FILE "05. Sandy Rivera - This Feeling (Luca Cassani Mix).wav" WAVE TRACK 05 AUDIO TITLE "This Feeling (Luca Cassani Mix)" PERFORMER "Sandy Rivera" REM COMPOSER "" FLAGS DCP INDEX 01 00:00:00FILE "06. Knabberbox - Rezpect (Original Mix).wav" WAVE TRACK 06 AUDIO TITLE "Rezpect (Original Mix)" PERFORMER "Knabberbox" REM COMPOSER "" FLAGS DCP INDEX 01 00:00:00FILE "07. Mambana - Libre (Axwell Vocal Mix).wav" WAVE TRACK 07 AUDIO TITLE "Libre (Axwell Vocal Mix)" PERFORMER "Mambana" REM COMPOSER "" FLAGS DCP INDEX 01 00:00:00FILE "08. Johnny Corporate - Sunday Shouting (Erick's Subliminal Mix).wav" WAVE TRACK 08 AUDIO TITLE "Sunday Shouting (Erick's Subliminal Mix)" PERFORMER "Johnny Corporate" REM COMPOSER "" FLAGS DCP INDEX 01 00:00:00FILE "09. Deee-Lite - Groove Is In The Heart (Meeting The Minds Mix).wav" WAVE TRACK 09 AUDIO TITLE "Groove Is In The Heart (Meeting The Minds Mix)" PERFORMER "Deee-Lite" REM COMPOSER "" FLAGS DCP INDEX 01 00:00:00FILE "10. Paul Johnson - Follow This Beat (Mousse T. Psycho Disco).wav" WAVE TRACK 10 AUDIO TITLE "Follow This Beat (Mousse T. Psycho Disco)" PERFORMER "Paul Johnson" REM COMPOSER "" FLAGS DCP INDEX 01 00:00:00FILE "11. John Ciafone - Everyday (DJ Gregory Mix).wav" WAVE TRACK 11 AUDIO TITLE "Everyday (DJ Gregory Mix)" PERFORMER "John Ciafone" REM COMPOSER "" FLAGS DCP INDEX 01 00:00:00FILE "12. Junior Jack - E Samba (Original Club Mix).wav" WAVE TRACK 12 AUDIO TITLE "E Samba (Original Club Mix)" PERFORMER "Junior Jack" REM COMPOSER "" FLAGS DCP INDEX 01 00:00:00FILE "13. DJ Oliver - Free My Soul (Main Mix).wav" WAVE TRACK 13 AUDIO TITLE "Free My Soul (Main Mix)" PERFORMER "DJ Oliver" REM COMPOSER "" FLAGS DCP INDEX 01 00:00:00FILE "14. Gus Gus - David (Darren Emerson's Underwater Mix).wav" WAVE TRACK 14 AUDIO TITLE "David (Darren Emerson's Underwater Mix)" PERFORMER "Gus Gus" REM COMPOSER "" FLAGS DCP INDEX 01 00:00:00FILE "15. Chocolate Puma - A Star Is Born (The Scumfrog Edit).wav" WAVE TRACK 15 AUDIO TITLE "A Star Is Born (The Scumfrog Edit)" PERFORMER "Chocolate Puma" REM COMPOSER "" FLAGS DCP INDEX 01 00:00:00FILE "16. Lee-Cabrera - Shake It (Original).wav" WAVE TRACK 16 AUDIO TITLE "Shake It (Original)" PERFORMER "Lee-Cabrera" REM COMPOSER "" FLAGS DCP INDEX 01 00:00:00FILE "17. Wackside - Le Freak (Montilla's Freakin' Mix).wav" WAVE TRACK 17 AUDIO TITLE "Le Freak (Montilla's Freakin' Mix)" PERFORMER "Wackside" REM COMPOSER "" FLAGS DCP INDEX 01 00:00:00FILE "18. 4Tune 500 - Dancing In The Dark (Original Vocal Mix).wav" WAVE TRACK 18 AUDIO TITLE "Dancing In The Dark (Original Vocal Mix)" PERFORMER "4Tune 500" REM COMPOSER "" FLAGS DCP INDEX 01 00:00:00FILE "19. Nightcrawlers - Push The Feeling On 2003 (Terry's Vocal Mix).wav" WAVE TRACK 19 AUDIO TITLE "Push The Feeling On 2003 (Terry's Vocal Mix)" PERFORMER "Nightcrawlers" REM COMPOSER "" FLAGS DCP INDEX 01 00:00:00


[chi5o.com]_t_5661581.torrent
Торрент: Зарегистрирован ·  [ 2019-01-07 11:59 ] ·  16a9307003fdf68459b22add17c0d4b3a3a8d339

15 KB

Статус: проверено
Скачан: 0 раз
Размер: 625 MB
Оценка: 
(Голосов: 0)
Сказали спасибо: 0  Спасибо
Похожие темы
[Профиль]    [ЛС]
Показать сообщения:    
Ответить на тему

Текущее время: Сегодня 15:53

Часовой пояс: GMT + 7



Вы не можете начинать темы
Вы не можете отвечать на сообщения
Вы не можете редактировать свои сообщения
Вы не можете удалять свои сообщения
Вы не можете голосовать в опросах
Вы не можете прикреплять файлы к сообщениям
Вы можете скачивать файлы


Moedor elétrico de carne | The Monopolar season 02 episode 23 | Illustrated Course Guide Microsoft Access 2010 Advanced