(House) [CD] VA - Milk & Sugar - Housemusic.de - Reloaded - 2004, FLAC (tracks+.cue), lossless

Ответить на тему
Статистика раздачи [Обновить пиров]
Размер:  654 MB   |    Зарегистрирован:  17 дней   |    Скачан:  0 раз

Полного источника не было: Никогда

 
   
 
 
 
Автор Сообщение

chi5o.com

Создавать темы 07-Янв-2019 12:29

[Цитировать]

Milk & Sugar - Housemusic.de - Reloaded
Жанр: House
Носитель: CD
Год издания: 2004
Издатель (лейбл): Milk & Sugar Recordings
Номер по каталогу: MSR CD05
Аудиокодек: FLAC (*.flac)
Тип рипа: tracks+.cue
Битрейт аудио: lossless
Продолжительность: 01:19:43
Источник (релизер): свой рип
Наличие сканов в содержимом раздачи: да
Треклист:
01. Lee Cabrera Pres. Phase 2 - Voodoo Love (4:13)
02. Shapshifters - Lola's Theme (instr.) (3:04)
03. Deep Dish - Flashdance (4:11)
04. Pleasure Bar - Feel The Need (3:39)
05. Eric Prydz - Woz Not Woz (3:27)
06. Saturated Soul - Got To Release (2:49)
07. Kid Creme - Doing My Own Thing (3:50)
08. DJ Chus & David Penn - Will I (3:18)
09. Soul Central - Strings Of Life (3:48)
10. Danny Howells & Dick Trevor - Dusk Till Dawn (3:49)
11. Ricardo Lopez - Dayo (3:16)
12. Gadjo - So Many Times (4:29)
13. Ku Affair - Pega Essa Mulher (3:41)
14. Skylarc - That's More Like It (3:49)
15. Milk & Sugar - Shut Up (3:03)
16. Solaphonics - Give Me Some Love (3:05)
17. S.U.M.O - Supra Sumo (3:26)
18. DJ Gregory - The Joburge Theme (4:14)
19. Havana Funk - Bakiri Ban (3:57)
20. Damien J. Carter & Ali Escobar - Viva Tua Vida (4:04)
21. Static Revenger - So High (4:20)
22. Copyright Feat. Shovell - Bulo (2:13)

Лог создания рипа

Exact Audio Copy V1.3 from 2. September 2016
EAC extraction logfile from 18. December 2018, 8:10
Milk & Sugar / Housemusic.de - Reloaded
Used drive : ASUS SDRW-08D2S-U Adapter: 8 ID: 5
Read mode : SecureUtilize accurate stream : YesDefeat audio cache : YesMake use of C2 pointers : No
Read offset correction : 6Overread into Lead-In and Lead-Out : NoFill up missing offset samples with silence : YesDelete leading and trailing silent blocks : NoNull samples used in CRC calculations : YesUsed interface : Installed external ASPI interfaceGap handling : Appended to previous track
Used output format : User Defined EncoderSelected bitrate : 128 kBit/sQuality : HighAdd ID3 tag : NoCommand line compressor : D:\flac-1.3.2-win\win64\flac.exeAdditional command line options : -8 -V -T "ARTIST=%artist%" -T "TITLE=%title%" -T "ALBUM=%albumtitle%" -T "DATE=%year%" -T "TRACKNUMBER=%tracknr%" -T "GENRE=%genre%" -T "COMMENT=ripped by Andy aka yetiisyou" %source%
TOC of the extracted CD
Track | Start | Length | Start sector | End sector --------------------------------------------------------- 1 | 0:00.00 | 4:13.25 | 0 | 18999 2 | 4:13.25 | 3:03.55 | 19000 | 32779 3 | 7:17.05 | 4:11.02 | 32780 | 51606 4 | 11:28.07 | 3:38.48 | 51607 | 68004 5 | 15:06.55 | 3:26.49 | 68005 | 83503 6 | 18:33.29 | 2:48.59 | 83504 | 96162 7 | 21:22.13 | 3:49.52 | 96163 | 113389 8 | 25:11.65 | 3:18.16 | 113390 | 128255 9 | 28:30.06 | 3:47.44 | 128256 | 145324 10 | 32:17.50 | 3:49.32 | 145325 | 162531 11 | 36:07.07 | 3:16.05 | 162532 | 177236 12 | 39:23.12 | 4:28.50 | 177237 | 197386 13 | 43:51.62 | 3:40.72 | 197387 | 213958 14 | 47:32.59 | 3:48.68 | 213959 | 231126 15 | 51:21.52 | 3:02.73 | 231127 | 244849 16 | 54:24.50 | 3:04.66 | 244850 | 258715 17 | 57:29.41 | 3:25.74 | 258716 | 274164 18 | 60:55.40 | 4:13.54 | 274165 | 293193 19 | 65:09.19 | 3:56.40 | 293194 | 310933 20 | 69:05.59 | 4:04.19 | 310934 | 329252 21 | 73:10.03 | 4:19.53 | 329253 | 348730 22 | 77:29.56 | 2:13.34 | 348731 | 358739
Track 1
Filename E:\!Ripped by Andy aka yetiisyou\VA - Milk & Sugar - Housemusic.de - Reloaded [MSR CD05] [2004]\01. Lee Cabrera Pres. Phase 2 - Voodoo Love.wav
Pre-gap length 0:00:02.00
Peak level 96.6 % Extraction speed 1.3 X Track quality 100.0 % Test CRC BCF2C9BC Copy CRC BCF2C9BC Accurately ripped (confidence 1) [A903B69E] (AR v2) Copy OK
Track 2
Filename E:\!Ripped by Andy aka yetiisyou\VA - Milk & Sugar - Housemusic.de - Reloaded [MSR CD05] [2004]\02. Shapshifters - Lola's Theme (instr.).wav
Pre-gap length 0:00:02.00
Peak level 96.6 % Extraction speed 1.3 X Track quality 100.0 % Test CRC 7F50DF32 Copy CRC 7F50DF32 Accurately ripped (confidence 1) [DD9BBC50] (AR v2) Copy OK
Track 3
Filename E:\!Ripped by Andy aka yetiisyou\VA - Milk & Sugar - Housemusic.de - Reloaded [MSR CD05] [2004]\03. Deep Dish - Flashdance.wav
Pre-gap length 0:00:02.00
Peak level 96.6 % Extraction speed 1.5 X Track quality 100.0 % Test CRC AC6180EC Copy CRC AC6180EC Accurately ripped (confidence 1) [BB4BCC48] (AR v2) Copy OK
Track 4
Filename E:\!Ripped by Andy aka yetiisyou\VA - Milk & Sugar - Housemusic.de - Reloaded [MSR CD05] [2004]\04. Pleasure Bar - Feel The Need.wav
Pre-gap length 0:00:02.00
Peak level 96.6 % Extraction speed 1.6 X Track quality 100.0 % Test CRC A65DC060 Copy CRC A65DC060 Accurately ripped (confidence 1) [D95706E1] (AR v2) Copy OK
Track 5
Filename E:\!Ripped by Andy aka yetiisyou\VA - Milk & Sugar - Housemusic.de - Reloaded [MSR CD05] [2004]\05. Eric Prydz - Woz Not Woz.wav
Pre-gap length 0:00:02.00
Peak level 96.6 % Extraction speed 1.6 X Track quality 100.0 % Test CRC 7747F8EE Copy CRC 7747F8EE Accurately ripped (confidence 1) [A8314014] (AR v2) Copy OK
Track 6
Filename E:\!Ripped by Andy aka yetiisyou\VA - Milk & Sugar - Housemusic.de - Reloaded [MSR CD05] [2004]\06. Saturated Soul - Got To Release.wav
Pre-gap length 0:00:02.00
Peak level 96.6 % Extraction speed 1.7 X Track quality 100.0 % Test CRC F70D6D44 Copy CRC F70D6D44 Accurately ripped (confidence 1) [25756CAE] (AR v2) Copy OK
Track 7
Filename E:\!Ripped by Andy aka yetiisyou\VA - Milk & Sugar - Housemusic.de - Reloaded [MSR CD05] [2004]\07. Kid Creme - Doing My Own Thing.wav
Pre-gap length 0:00:02.00
Peak level 96.6 % Extraction speed 1.8 X Track quality 100.0 % Test CRC 4AC5DC23 Copy CRC 4AC5DC23 Accurately ripped (confidence 1) [3EF1CCC3] (AR v2) Copy OK
Track 8
Filename E:\!Ripped by Andy aka yetiisyou\VA - Milk & Sugar - Housemusic.de - Reloaded [MSR CD05] [2004]\08. DJ Chus & David Penn - Will I.wav
Pre-gap length 0:00:02.00
Peak level 96.6 % Extraction speed 1.6 X Track quality 99.9 % Test CRC 2DF10AF4 Copy CRC 2DF10AF4 Accurately ripped (confidence 1) [476044ED] (AR v2) Copy OK
Track 9
Filename E:\!Ripped by Andy aka yetiisyou\VA - Milk & Sugar - Housemusic.de - Reloaded [MSR CD05] [2004]\09. Soul Central - Strings Of Life.wav
Pre-gap length 0:00:02.00
Peak level 96.6 % Extraction speed 2.0 X Track quality 100.0 % Test CRC CBF618C6 Copy CRC CBF618C6 Accurately ripped (confidence 1) [D80D9A8C] (AR v2) Copy OK
Track 10
Filename E:\!Ripped by Andy aka yetiisyou\VA - Milk & Sugar - Housemusic.de - Reloaded [MSR CD05] [2004]\10. Danny Howells & Dick Trevor - Dusk Till Dawn.wav
Pre-gap length 0:00:02.00
Peak level 96.6 % Extraction speed 1.8 X Track quality 99.9 % Test CRC FEDA685E Copy CRC FEDA685E Accurately ripped (confidence 1) [D0294F6C] (AR v2) Copy OK
Track 11
Filename E:\!Ripped by Andy aka yetiisyou\VA - Milk & Sugar - Housemusic.de - Reloaded [MSR CD05] [2004]\11. Ricardo Lopez - Dayo.wav
Pre-gap length 0:00:02.00
Peak level 96.6 % Extraction speed 2.1 X Track quality 100.0 % Test CRC 270C4294 Copy CRC 270C4294 Accurately ripped (confidence 1) [11A1DF97] (AR v2) Copy OK
Track 12
Filename E:\!Ripped by Andy aka yetiisyou\VA - Milk & Sugar - Housemusic.de - Reloaded [MSR CD05] [2004]\12. Gadjo - So Many Times.wav
Pre-gap length 0:00:02.00
Suspicious position 0:04:23 - 0:04:27
Peak level 99.9 % Extraction speed 0.3 X Track quality 98.5 % Test CRC 4AD46C17 Copy CRC C7206708 Cannot be verified as accurate (confidence 1) [1F075F1F], AccurateRip returned [5E20D5A7] (AR v2) Copy finished
Track 13
Filename E:\!Ripped by Andy aka yetiisyou\VA - Milk & Sugar - Housemusic.de - Reloaded [MSR CD05] [2004]\13. Ku Affair - Pega Essa Mulher.wav
Pre-gap length 0:00:02.00
Peak level 96.6 % Extraction speed 0.8 X Track quality 99.5 % Test CRC C5A16F68 Copy CRC C5A16F68 Cannot be verified as accurate (confidence 1) [D49F361B], AccurateRip returned [2B959347] (AR v2) Copy OK
Track 14
Filename E:\!Ripped by Andy aka yetiisyou\VA - Milk & Sugar - Housemusic.de - Reloaded [MSR CD05] [2004]\14. Skylarc - That's More Like It.wav
Pre-gap length 0:00:02.00
Peak level 96.6 % Extraction speed 2.3 X Track quality 100.0 % Test CRC 8F61B2C4 Copy CRC 8F61B2C4 Accurately ripped (confidence 1) [EB4E9226] (AR v2) Copy OK
Track 15
Filename E:\!Ripped by Andy aka yetiisyou\VA - Milk & Sugar - Housemusic.de - Reloaded [MSR CD05] [2004]\15. Milk & Sugar - Shut Up.wav
Pre-gap length 0:00:02.00
Peak level 96.6 % Extraction speed 2.3 X Track quality 100.0 % Test CRC 5CA82620 Copy CRC 5CA82620 Accurately ripped (confidence 1) [96496A7D] (AR v2) Copy OK
Track 16
Filename E:\!Ripped by Andy aka yetiisyou\VA - Milk & Sugar - Housemusic.de - Reloaded [MSR CD05] [2004]\16. Solaphonics - Give Me Some Love.wav
Pre-gap length 0:00:02.00
Peak level 96.6 % Extraction speed 2.3 X Track quality 100.0 % Test CRC 7EF50ECC Copy CRC 7EF50ECC Accurately ripped (confidence 1) [42AC0C19] (AR v2) Copy OK
Track 17
Filename E:\!Ripped by Andy aka yetiisyou\VA - Milk & Sugar - Housemusic.de - Reloaded [MSR CD05] [2004]\17. S.U.M.O - Supra Sumo.wav
Pre-gap length 0:00:02.00
Peak level 96.6 % Extraction speed 2.5 X Track quality 100.0 % Test CRC 6D5F5947 Copy CRC 6D5F5947 Accurately ripped (confidence 1) [DFB20110] (AR v2) Copy OK
Track 18
Filename E:\!Ripped by Andy aka yetiisyou\VA - Milk & Sugar - Housemusic.de - Reloaded [MSR CD05] [2004]\18. DJ Gregory - The Joburge Theme.wav
Pre-gap length 0:00:02.00
Peak level 96.6 % Extraction speed 2.6 X Track quality 100.0 % Test CRC 7500875F Copy CRC 7500875F Accurately ripped (confidence 1) [B7E3BD63] (AR v2) Copy OK
Track 19
Filename E:\!Ripped by Andy aka yetiisyou\VA - Milk & Sugar - Housemusic.de - Reloaded [MSR CD05] [2004]\19. Havana Funk - Bakiri Ban.wav
Pre-gap length 0:00:02.00
Peak level 96.6 % Extraction speed 2.6 X Track quality 100.0 % Test CRC 82CFDA99 Copy CRC 82CFDA99 Accurately ripped (confidence 1) [F07E02A6] (AR v2) Copy OK
Track 20
Filename E:\!Ripped by Andy aka yetiisyou\VA - Milk & Sugar - Housemusic.de - Reloaded [MSR CD05] [2004]\20. Damien J. Carter & Ali Escobar - Viva Tua Vida.wav
Pre-gap length 0:00:02.00
Peak level 96.6 % Extraction speed 2.7 X Track quality 100.0 % Test CRC 685B9C43 Copy CRC 685B9C43 Accurately ripped (confidence 1) [2101DACC] (AR v2) Copy OK
Track 21
Filename E:\!Ripped by Andy aka yetiisyou\VA - Milk & Sugar - Housemusic.de - Reloaded [MSR CD05] [2004]\21. Static Revenger - So High.wav
Pre-gap length 0:00:02.00
Peak level 96.6 % Extraction speed 2.8 X Track quality 100.0 % Test CRC 71206146 Copy CRC 71206146 Accurately ripped (confidence 1) [4C7E9D82] (AR v2) Copy OK
Track 22
Filename E:\!Ripped by Andy aka yetiisyou\VA - Milk & Sugar - Housemusic.de - Reloaded [MSR CD05] [2004]\22. Copyright Feat. Shovell - Bulo.wav
Pre-gap length 0:00:02.00
Peak level 96.6 % Extraction speed 2.0 X Track quality 99.9 % Test CRC 165F27E1 Copy CRC 165F27E1 Accurately ripped (confidence 1) [B0ECD2FE] (AR v2) Copy OK
20 track(s) accurately ripped 2 track(s) could not be verified as accurate
Some tracks could not be verified as accurate
There were errors
End of status report
---- CUETools DB Plugin V2.1.6
[CTDB TOCID: a5GhX_4CR8v5xMwn8FlIXUG75u0-] foundSubmit result: insufficient qualityTrack | CTDB Status 1 | (6/6) Accurately ripped 2 | (6/6) Accurately ripped 3 | (6/6) Accurately ripped 4 | (6/6) Accurately ripped 5 | (6/6) Accurately ripped 6 | (6/6) Accurately ripped 7 | (6/6) Accurately ripped 8 | (6/6) Accurately ripped 9 | (6/6) Accurately ripped 10 | (6/6) Accurately ripped 11 | (6/6) Accurately ripped 12 | (4/6) Differs in 634 samples @02:46:17,02:46:52-02:46:53,02:46:70-02:46:71,02:50:20-02:50:21,04:22:35-04:22:36,04:22:53-04:22:54,04:23:14-04:23:15,04:23:33,04:23:69,04:24:30,04:24:66-04:24:67,04:25:45-04:25:46,04:26:61,04:27:04,04:27:22 13 | (4/6) Differs in 16 samples @00:46:22,00:47:02 14 | (6/6) Accurately ripped 15 | (6/6) Accurately ripped 16 | (6/6) Accurately ripped 17 | (6/6) Accurately ripped 18 | (6/6) Accurately ripped 19 | (6/6) Accurately ripped 20 | (6/6) Accurately ripped 21 | (6/6) Accurately ripped 22 | (5/6) Accurately rippedIf you are sure that your rip contains errors, you can use CUETools to repair it.
==== Log checksum 171261A07D27AD7DE74EE75CFCD1ADE1E742B4D1A39BBA470BA48C0B8C925C8C ====
------------------------------------------------------------
Exact Audio Copy V1.3 from 2. September 2016
EAC extraction logfile from 18. December 2018, 8:43
Milk & Sugar / Housemusic.de - Reloaded
Used drive : ASUS SDRW-08D2S-U Adapter: 8 ID: 5
Read mode : SecureUtilize accurate stream : YesDefeat audio cache : YesMake use of C2 pointers : No
Read offset correction : 6Overread into Lead-In and Lead-Out : NoFill up missing offset samples with silence : YesDelete leading and trailing silent blocks : NoNull samples used in CRC calculations : YesUsed interface : Installed external ASPI interfaceGap handling : Appended to previous track
Used output format : User Defined EncoderSelected bitrate : 128 kBit/sQuality : HighAdd ID3 tag : NoCommand line compressor : D:\flac-1.3.2-win\win64\flac.exeAdditional command line options : -8 -V -T "ARTIST=%artist%" -T "TITLE=%title%" -T "ALBUM=%albumtitle%" -T "DATE=%year%" -T "TRACKNUMBER=%tracknr%" -T "GENRE=%genre%" -T "COMMENT=ripped by Andy aka yetiisyou" %source%
TOC of the extracted CD
Track | Start | Length | Start sector | End sector --------------------------------------------------------- 1 | 0:00.00 | 4:13.25 | 0 | 18999 2 | 4:13.25 | 3:03.55 | 19000 | 32779 3 | 7:17.05 | 4:11.02 | 32780 | 51606 4 | 11:28.07 | 3:38.48 | 51607 | 68004 5 | 15:06.55 | 3:26.49 | 68005 | 83503 6 | 18:33.29 | 2:48.59 | 83504 | 96162 7 | 21:22.13 | 3:49.52 | 96163 | 113389 8 | 25:11.65 | 3:18.16 | 113390 | 128255 9 | 28:30.06 | 3:47.44 | 128256 | 145324 10 | 32:17.50 | 3:49.32 | 145325 | 162531 11 | 36:07.07 | 3:16.05 | 162532 | 177236 12 | 39:23.12 | 4:28.50 | 177237 | 197386 13 | 43:51.62 | 3:40.72 | 197387 | 213958 14 | 47:32.59 | 3:48.68 | 213959 | 231126 15 | 51:21.52 | 3:02.73 | 231127 | 244849 16 | 54:24.50 | 3:04.66 | 244850 | 258715 17 | 57:29.41 | 3:25.74 | 258716 | 274164 18 | 60:55.40 | 4:13.54 | 274165 | 293193 19 | 65:09.19 | 3:56.40 | 293194 | 310933 20 | 69:05.59 | 4:04.19 | 310934 | 329252 21 | 73:10.03 | 4:19.53 | 329253 | 348730 22 | 77:29.56 | 2:13.34 | 348731 | 358739
Track 12
Filename E:\!Ripped by Andy aka yetiisyou\VA - Milk & Sugar - Housemusic.de - Reloaded [MSR CD05] [2004]\12. Gadjo - So Many Times.wav
Pre-gap length 0:00:02.00
Peak level 96.6 % Extraction speed 2.2 X Track quality 100.0 % Test CRC 11B75A43 Copy CRC 11B75A43 Accurately ripped (confidence 1) [5E20D5A7] (AR v2) Copy OK
All tracks accurately ripped
No errors occurred
End of status report
==== Log checksum 21695CEF1D6E62116C3ECDE59BD399A2A956CF8495C0FB8FEA5F5638319EFAF1 ====

Содержание индексной карты (.CUE)

REM GENRE HouseREM DATE 2004REM DISCID 4512AF16REM COMMENT "ExactAudioCopy v1.3"PERFORMER "Milk & Sugar"TITLE "Housemusic.de - Reloaded"REM COMPOSER ""FILE "01. Lee Cabrera Pres. Phase 2 - Voodoo Love.wav" WAVE TRACK 01 AUDIO TITLE "Voodoo Love" PERFORMER "Lee Cabrera Pres. Phase 2" REM COMPOSER "" INDEX 01 00:00:00 TRACK 02 AUDIO TITLE "Lola's Theme (instr.)" PERFORMER "Shapshifters" REM COMPOSER "" INDEX 00 04:11:25FILE "02. Shapshifters - Lola's Theme (instr.).wav" WAVE INDEX 01 00:00:00 TRACK 03 AUDIO TITLE "Flashdance" PERFORMER "Deep Dish" REM COMPOSER "" INDEX 00 03:01:55FILE "03. Deep Dish - Flashdance.wav" WAVE INDEX 01 00:00:00 TRACK 04 AUDIO TITLE "Feel The Need" PERFORMER "Pleasure Bar" REM COMPOSER "" INDEX 00 04:09:02FILE "04. Pleasure Bar - Feel The Need.wav" WAVE INDEX 01 00:00:00 TRACK 05 AUDIO TITLE "Woz Not Woz" PERFORMER "Eric Prydz" REM COMPOSER "" INDEX 00 03:36:48FILE "05. Eric Prydz - Woz Not Woz.wav" WAVE INDEX 01 00:00:00 TRACK 06 AUDIO TITLE "Got To Release" PERFORMER "Saturated Soul" REM COMPOSER "" INDEX 00 03:24:49FILE "06. Saturated Soul - Got To Release.wav" WAVE INDEX 01 00:00:00 TRACK 07 AUDIO TITLE "Doing My Own Thing" PERFORMER "Kid Creme" REM COMPOSER "" INDEX 00 02:46:59FILE "07. Kid Creme - Doing My Own Thing.wav" WAVE INDEX 01 00:00:00 TRACK 08 AUDIO TITLE "Will I" PERFORMER "DJ Chus & David Penn" REM COMPOSER "" INDEX 00 03:47:52FILE "08. DJ Chus & David Penn - Will I.wav" WAVE INDEX 01 00:00:00 TRACK 09 AUDIO TITLE "Strings Of Life" PERFORMER "Soul Central" REM COMPOSER "" INDEX 00 03:16:16FILE "09. Soul Central - Strings Of Life.wav" WAVE INDEX 01 00:00:00 TRACK 10 AUDIO TITLE "Dusk Till Dawn" PERFORMER "Danny Howells & Dick Trevor" REM COMPOSER "" INDEX 00 03:45:44FILE "10. Danny Howells & Dick Trevor - Dusk Till Dawn.wav" WAVE INDEX 01 00:00:00 TRACK 11 AUDIO TITLE "Dayo" PERFORMER "Ricardo Lopez" REM COMPOSER "" INDEX 00 03:47:32FILE "11. Ricardo Lopez - Dayo.wav" WAVE INDEX 01 00:00:00 TRACK 12 AUDIO TITLE "So Many Times" PERFORMER "Gadjo" REM COMPOSER "" INDEX 00 03:14:05FILE "12. Gadjo - So Many Times.wav" WAVE INDEX 01 00:00:00 TRACK 13 AUDIO TITLE "Pega Essa Mulher" PERFORMER "Ku Affair" REM COMPOSER "" INDEX 00 04:26:50FILE "13. Ku Affair - Pega Essa Mulher.wav" WAVE INDEX 01 00:00:00 TRACK 14 AUDIO TITLE "That's More Like It" PERFORMER "Skylarc" REM COMPOSER "" INDEX 00 03:38:72FILE "14. Skylarc - That's More Like It.wav" WAVE INDEX 01 00:00:00 TRACK 15 AUDIO TITLE "Shut Up" PERFORMER "Milk & Sugar" REM COMPOSER "" INDEX 00 03:46:68FILE "15. Milk & Sugar - Shut Up.wav" WAVE INDEX 01 00:00:00 TRACK 16 AUDIO TITLE "Give Me Some Love" PERFORMER "Solaphonics" REM COMPOSER "" INDEX 00 03:00:73FILE "16. Solaphonics - Give Me Some Love.wav" WAVE INDEX 01 00:00:00 TRACK 17 AUDIO TITLE "Supra Sumo" PERFORMER "S.U.M.O" REM COMPOSER "" INDEX 00 03:02:66FILE "17. S.U.M.O - Supra Sumo.wav" WAVE INDEX 01 00:00:00 TRACK 18 AUDIO TITLE "The Joburge Theme" PERFORMER "DJ Gregory" REM COMPOSER "" INDEX 00 03:23:74FILE "18. DJ Gregory - The Joburge Theme.wav" WAVE INDEX 01 00:00:00 TRACK 19 AUDIO TITLE "Bakiri Ban" PERFORMER "Havana Funk" REM COMPOSER "" INDEX 00 04:11:54FILE "19. Havana Funk - Bakiri Ban.wav" WAVE INDEX 01 00:00:00 TRACK 20 AUDIO TITLE "Viva Tua Vida" PERFORMER "Damien J. Carter & Ali Escobar" REM COMPOSER "" INDEX 00 03:54:40FILE "20. Damien J. Carter & Ali Escobar - Viva Tua Vida.wav" WAVE INDEX 01 00:00:00 TRACK 21 AUDIO TITLE "So High" PERFORMER "Static Revenger" REM COMPOSER "" INDEX 00 04:02:19FILE "21. Static Revenger - So High.wav" WAVE INDEX 01 00:00:00 TRACK 22 AUDIO TITLE "Bulo" PERFORMER "Copyright Feat. Shovell" REM COMPOSER "" INDEX 00 04:17:53FILE "22. Copyright Feat. Shovell - Bulo.wav" WAVE INDEX 01 00:00:00


[chi5o.com]_t_5661587.torrent
Торрент: Зарегистрирован ·  [ 2019-01-07 11:59 ] ·  693e26523fee248a95e43f8a74c28643a19f80bd

15 KB

Статус: проверено
Скачан: 0 раз
Размер: 654 MB
Оценка: 
(Голосов: 0)
Сказали спасибо: 0  Спасибо
Похожие темы
[Профиль]    [ЛС]
Показать сообщения:    
Ответить на тему

Текущее время: Сегодня 15:47

Часовой пояс: GMT + 7



Вы не можете начинать темы
Вы не можете отвечать на сообщения
Вы не можете редактировать свои сообщения
Вы не можете удалять свои сообщения
Вы не можете голосовать в опросах
Вы не можете прикреплять файлы к сообщениям
Вы можете скачивать файлы


Kit reparation cylindre serrure verrou piece Pour porte Avant BMW 3 Series E46 | Captain Tsubasa (2018) 08 VOSTFR | January 13, 2019