(House) [CD] VA - House Club Hottest 008 - 2005, FLAC (tracks+.cue), lossless

Ответить на тему
Статистика раздачи [Обновить пиров]
Размер:  619 MB   |    Зарегистрирован:  17 дней   |    Скачан:  0 раз

Полного источника не было: Никогда

 
   
 
 
 
Автор Сообщение

chi5o.com

Создавать темы 07-Янв-2019 12:29

[Цитировать]

House Club Hottest 008
Жанр: House
Носитель: CD
Год издания: 2005
Издатель (лейбл): 7Lux
Номер по каталогу: 6211-2
Аудиокодек: FLAC (*.flac)
Тип рипа: tracks+.cue
Битрейт аудио: lossless
Продолжительность: 01:10:33
Источник (релизер): свой рип
Наличие сканов в содержимом раздачи: да
Треклист:
1. Andrea Britton - Am I On Your Mind (Steve Porter Mix) [04:10]
2. Deep Dish - Say Hello (Main Mix) [03:44]
3. Ian Pooley - Sumo Illuzija [01:50]
4. JCA - Some Day (Main Mix) [02:57]
5. Blaze feat. Barbara Tucker - Most Precious Love (DF Future 3000Mix) [03:45]
6. C Mos - 2 Million Ways (Axwell Mix) [03:56]
7. Rune - Nothing New (Steve Mac´s Calabria Remix) [04:20]
8. Sydenham & Ferrer - Sandcastles (Ten Velden & Knight Mix) [03:54]
9. Moth feat. Engeline - Foxy (De Loren+Colors Mix) [03:53]
10. Tom Novy feat. Lima - Take It (Club Mix) [04:36]
11. Coburn - We Interrupt This Program (Interupted VocalMix) [03:04]
12. The Drill - The Drill (Original) [04:37]
13. Axwell - Feel The Vibe (Original) [03:53]
14. Deep Dish vs. Dire Straits - Flashing For Money [03:14]
15. Trick & Cubic - High (Tom Novy Remix) [03:11]
16. Mylo - In My Arms (Tocadisco Mix) [03:50]
17. Roman Flügel - Geht´s Noch? (Steve Angello Mix) [03:29]
18. Moonbootica - June (Original Mix) [04:22]
19. Zoo Brazil feat. Emma - Tonight (Skylark Mix) [03:58]

Лог создания рипа

Exact Audio Copy V1.3 from 2. September 2016
EAC extraction logfile from 18. December 2018, 8:11
Various Artists / House Club Hottest 008
Used drive : ASUS DRW-24B5ST Adapter: 6 ID: 0
Read mode : SecureUtilize accurate stream : YesDefeat audio cache : YesMake use of C2 pointers : No
Read offset correction : 6Overread into Lead-In and Lead-Out : NoFill up missing offset samples with silence : YesDelete leading and trailing silent blocks : NoNull samples used in CRC calculations : YesUsed interface : Installed external ASPI interfaceGap handling : Appended to previous track
Used output format : User Defined EncoderSelected bitrate : 128 kBit/sQuality : HighAdd ID3 tag : NoCommand line compressor : D:\flac-1.3.2-win\win64\flac.exeAdditional command line options : -8 -V -T "ARTIST=%artist%" -T "TITLE=%title%" -T "ALBUM=%albumtitle%" -T "DATE=%year%" -T "TRACKNUMBER=%tracknr%" -T "GENRE=%genre%" -T "COMMENT=ripped by Andy aka yetiisyou" %source%
TOC of the extracted CD
Track | Start | Length | Start sector | End sector --------------------------------------------------------- 1 | 0:00.00 | 4:09.25 | 0 | 18699 2 | 4:09.25 | 3:43.51 | 18700 | 35475 3 | 7:53.01 | 1:49.34 | 35476 | 43684 4 | 9:42.35 | 2:56.15 | 43685 | 56899 5 | 12:38.50 | 3:44.46 | 56900 | 73745 6 | 16:23.21 | 3:55.71 | 73746 | 91441 7 | 20:19.17 | 4:19.06 | 91442 | 110872 8 | 24:38.23 | 3:53.03 | 110873 | 128350 9 | 28:31.26 | 3:52.05 | 128351 | 145755 10 | 32:23.31 | 4:35.43 | 145756 | 166423 11 | 36:58.74 | 3:03.53 | 166424 | 180201 12 | 40:02.52 | 4:36.49 | 180202 | 200950 13 | 44:39.26 | 3:52.74 | 200951 | 218424 14 | 48:32.25 | 3:13.56 | 218425 | 232955 15 | 51:46.06 | 3:10.18 | 232956 | 247223 16 | 54:56.24 | 3:49.01 | 247224 | 264399 17 | 58:45.25 | 3:28.74 | 264400 | 280073 18 | 62:14.24 | 4:21.11 | 280074 | 299659 19 | 66:35.35 | 3:57.32 | 299660 | 317466
Track 1
Filename E:\!Ripped by Andy aka yetiisyou\VA - Stadi - House Club Hottest. 008 [6211-2] [2005]\01. Andrea Britton - Am I on Your Mind (Nick Holder mix).wav
Pre-gap length 0:00:02.00
Peak level 99.8 % Extraction speed 1.0 X Track quality 99.9 % Test CRC 9D8F1A03 Copy CRC 9D8F1A03 Accurately ripped (confidence 4) [39AADB2B] (AR v2) Copy OK
Track 2
Filename E:\!Ripped by Andy aka yetiisyou\VA - Stadi - House Club Hottest. 008 [6211-2] [2005]\02. Deep Dish - Say Hello (main mix).wav
Peak level 99.9 % Extraction speed 1.1 X Track quality 100.0 % Test CRC B9960D4E Copy CRC B9960D4E Accurately ripped (confidence 4) [7056EF5D] (AR v2) Copy OK
Track 3
Filename E:\!Ripped by Andy aka yetiisyou\VA - Stadi - House Club Hottest. 008 [6211-2] [2005]\03. Ian Pooley - Sumo Illuzija.wav
Peak level 99.9 % Extraction speed 0.9 X Track quality 100.0 % Test CRC A9E04C7A Copy CRC A9E04C7A Accurately ripped (confidence 4) [BA467C12] (AR v2) Copy OK
Track 4
Filename E:\!Ripped by Andy aka yetiisyou\VA - Stadi - House Club Hottest. 008 [6211-2] [2005]\04. J.C.A. - Some Day (main mix).wav
Peak level 99.9 % Extraction speed 1.0 X Track quality 100.0 % Test CRC 8478BAA3 Copy CRC 8478BAA3 Accurately ripped (confidence 4) [FCE2E11C] (AR v2) Copy OK
Track 5
Filename E:\!Ripped by Andy aka yetiisyou\VA - Stadi - House Club Hottest. 008 [6211-2] [2005]\05. Blaze feat. Barbara Tucker - Most Precious Love (DF Future 3001 mix).wav
Peak level 99.9 % Extraction speed 1.0 X Track quality 100.0 % Test CRC 6A517286 Copy CRC 6A517286 Accurately ripped (confidence 4) [CC803327] (AR v2) Copy OK
Track 6
Filename E:\!Ripped by Andy aka yetiisyou\VA - Stadi - House Club Hottest. 008 [6211-2] [2005]\06. C-Mos - 2 Million Ways (Axwell mix).wav
Peak level 99.9 % Extraction speed 1.1 X Track quality 100.0 % Test CRC 98DE3A18 Copy CRC 98DE3A18 Accurately ripped (confidence 3) [560D5DE7] (AR v2) Copy OK
Track 7
Filename E:\!Ripped by Andy aka yetiisyou\VA - Stadi - House Club Hottest. 008 [6211-2] [2005]\07. Rune - Nothing New (Steve Mac's Calabria remix).wav
Peak level 99.9 % Extraction speed 1.1 X Track quality 100.0 % Test CRC E0F40CA1 Copy CRC E0F40CA1 Accurately ripped (confidence 3) [A3BF9669] (AR v2) Copy OK
Track 8
Filename E:\!Ripped by Andy aka yetiisyou\VA - Stadi - House Club Hottest. 008 [6211-2] [2005]\08. Ferrer & Sydenham Inc. - Sandcastles (Ten Velden & Knight mix).wav
Peak level 99.9 % Extraction speed 0.9 X Track quality 99.9 % Test CRC 638AE631 Copy CRC 638AE631 Accurately ripped (confidence 4) [3FF23AD6] (AR v2) Copy OK
Track 9
Filename E:\!Ripped by Andy aka yetiisyou\VA - Stadi - House Club Hottest. 008 [6211-2] [2005]\09. Moth feat. Engeline - Foxy (De Loren + Colors mix).wav
Peak level 99.9 % Extraction speed 0.9 X Track quality 99.9 % Test CRC 84FEFD91 Copy CRC 84FEFD91 Accurately ripped (confidence 3) [846D2448] (AR v2) Copy OK
Track 10
Filename E:\!Ripped by Andy aka yetiisyou\VA - Stadi - House Club Hottest. 008 [6211-2] [2005]\10. Tom Novy feat. Lima - Take It (club mix).wav
Peak level 99.9 % Extraction speed 0.9 X Track quality 99.9 % Test CRC 59EE6934 Copy CRC 59EE6934 Accurately ripped (confidence 4) [3C2EF4CF] (AR v2) Copy OK
Track 11
Filename E:\!Ripped by Andy aka yetiisyou\VA - Stadi - House Club Hottest. 008 [6211-2] [2005]\11. Coburn - We Interrupt This Program (Interrupted vocal mix).wav
Peak level 99.9 % Extraction speed 1.0 X Track quality 100.0 % Test CRC D2A83A15 Copy CRC D2A83A15 Accurately ripped (confidence 4) [4BB7D810] (AR v2) Copy OK
Track 12
Filename E:\!Ripped by Andy aka yetiisyou\VA - Stadi - House Club Hottest. 008 [6211-2] [2005]\12. The Drill - The Drill.wav
Peak level 99.9 % Extraction speed 1.1 X Track quality 100.0 % Test CRC DE2BA64F Copy CRC DE2BA64F Accurately ripped (confidence 4) [1D47037C] (AR v2) Copy OK
Track 13
Filename E:\!Ripped by Andy aka yetiisyou\VA - Stadi - House Club Hottest. 008 [6211-2] [2005]\13. Axwell - Feel the Vibe.wav
Peak level 99.9 % Extraction speed 1.0 X Track quality 100.0 % Test CRC D5D69974 Copy CRC D5D69974 Accurately ripped (confidence 4) [7F1B4724] (AR v2) Copy OK
Track 14
Filename E:\!Ripped by Andy aka yetiisyou\VA - Stadi - House Club Hottest. 008 [6211-2] [2005]\14. Deep Dish vs. Dire Straits - Flashing for Money.wav
Peak level 99.9 % Extraction speed 1.0 X Track quality 100.0 % Test CRC FDEC8200 Copy CRC FDEC8200 Accurately ripped (confidence 4) [0BE9283D] (AR v2) Copy OK
Track 15
Filename E:\!Ripped by Andy aka yetiisyou\VA - Stadi - House Club Hottest. 008 [6211-2] [2005]\15. Trick & Kubic - High (Tom Novy remix).wav
Peak level 99.9 % Extraction speed 0.8 X Track quality 99.9 % Test CRC 51E8ABEA Copy CRC 51E8ABEA Accurately ripped (confidence 4) [E2689FEF] (AR v2) Copy OK
Track 16
Filename E:\!Ripped by Andy aka yetiisyou\VA - Stadi - House Club Hottest. 008 [6211-2] [2005]\16. Mylo - In My Arms (Tocadisco mix).wav
Peak level 99.9 % Extraction speed 1.0 X Track quality 100.0 % Test CRC 54396BC8 Copy CRC 54396BC8 Accurately ripped (confidence 4) [3084D1CB] (AR v2) Copy OK
Track 17
Filename E:\!Ripped by Andy aka yetiisyou\VA - Stadi - House Club Hottest. 008 [6211-2] [2005]\17. Roman Flügel - Geht's Noch (Steve Angello mix).wav
Peak level 99.9 % Extraction speed 1.0 X Track quality 100.0 % Test CRC 48BA345C Copy CRC 48BA345C Accurately ripped (confidence 4) [250C3CAD] (AR v2) Copy OK
Track 18
Filename E:\!Ripped by Andy aka yetiisyou\VA - Stadi - House Club Hottest. 008 [6211-2] [2005]\18. Moonbootica - June (original mix).wav
Peak level 99.7 % Extraction speed 1.0 X Track quality 100.0 % Test CRC 8054003D Copy CRC 8054003D Accurately ripped (confidence 4) [856B7D9A] (AR v2) Copy OK
Track 19
Filename E:\!Ripped by Andy aka yetiisyou\VA - Stadi - House Club Hottest. 008 [6211-2] [2005]\19. Zoo Brazil feat. Emma - Tonight (Skylark mix).wav
Peak level 99.5 % Extraction speed 1.0 X Track quality 100.0 % Test CRC BB434047 Copy CRC BB434047 Accurately ripped (confidence 4) [362E6072] (AR v2) Copy OK
All tracks accurately ripped
No errors occurred
End of status report
---- CUETools DB Plugin V2.1.6
[CTDB TOCID: vbtmbRrjjUmJWi_6lMtauMncD8U-] foundSubmit result: vbtmbRrjjUmJWi_6lMtauMncD8U- has been confirmedTrack | CTDB Status 1 | (8/8) Accurately ripped 2 | (8/8) Accurately ripped 3 | (8/8) Accurately ripped 4 | (8/8) Accurately ripped 5 | (8/8) Accurately ripped 6 | (6/8) Accurately ripped 7 | (6/8) Accurately ripped 8 | (8/8) Accurately ripped 9 | (6/8) Accurately ripped 10 | (8/8) Accurately ripped 11 | (8/8) Accurately ripped 12 | (8/8) Accurately ripped 13 | (8/8) Accurately ripped 14 | (8/8) Accurately ripped 15 | (7/8) Accurately ripped 16 | (8/8) Accurately ripped 17 | (8/8) Accurately ripped 18 | (8/8) Accurately ripped 19 | (8/8) Accurately ripped
==== Log checksum 382CC0A9F7A455C748121B146C0EC182BBDB051183D97A1028F786A7BEF1CC31 ====

Содержание индексной карты (.CUE)

REM DATE 2005REM DISCID 14108813REM COMMENT "ExactAudioCopy v1.3"PERFORMER "Various Artists"TITLE "House Club Hottest 008"REM COMPOSER ""FILE "01. Andrea Britton - Am I on Your Mind (Nick Holder mix).wav" WAVE TRACK 01 AUDIO TITLE "Am I on Your Mind (Nick Holder mix)" PERFORMER "Andrea Britton" REM COMPOSER "" INDEX 01 00:00:00FILE "02. Deep Dish - Say Hello (main mix).wav" WAVE TRACK 02 AUDIO TITLE "Say Hello (main mix)" PERFORMER "Deep Dish" REM COMPOSER "" INDEX 01 00:00:00FILE "03. Ian Pooley - Sumo Illuzija.wav" WAVE TRACK 03 AUDIO TITLE "Sumo Illuzija" PERFORMER "Ian Pooley" REM COMPOSER "" INDEX 01 00:00:00FILE "04. J.C.A. - Some Day (main mix).wav" WAVE TRACK 04 AUDIO TITLE "Some Day (main mix)" PERFORMER "J.C.A." REM COMPOSER "" INDEX 01 00:00:00FILE "05. Blaze feat. Barbara Tucker - Most Precious Love (DF Future 3001 mix).wav" WAVE TRACK 05 AUDIO TITLE "Most Precious Love (DF Future 3001 mix)" PERFORMER "Blaze feat. Barbara Tucker" REM COMPOSER "" INDEX 01 00:00:00FILE "06. C-Mos - 2 Million Ways (Axwell mix).wav" WAVE TRACK 06 AUDIO TITLE "2 Million Ways (Axwell mix)" PERFORMER "C-Mos" REM COMPOSER "" INDEX 01 00:00:00FILE "07. Rune - Nothing New (Steve Mac's Calabria remix).wav" WAVE TRACK 07 AUDIO TITLE "Nothing New (Steve Mac's Calabria remix)" PERFORMER "Rune" REM COMPOSER "" INDEX 01 00:00:00FILE "08. Ferrer & Sydenham Inc. - Sandcastles (Ten Velden & Knight mix).wav" WAVE TRACK 08 AUDIO TITLE "Sandcastles (Ten Velden & Knight mix)" PERFORMER "Ferrer & Sydenham Inc." REM COMPOSER "" INDEX 01 00:00:00FILE "09. Moth feat. Engeline - Foxy (De Loren + Colors mix).wav" WAVE TRACK 09 AUDIO TITLE "Foxy (De Loren + Colors mix)" PERFORMER "Moth feat. Engeline" REM COMPOSER "" INDEX 01 00:00:00FILE "10. Tom Novy feat. Lima - Take It (club mix).wav" WAVE TRACK 10 AUDIO TITLE "Take It (club mix)" PERFORMER "Tom Novy feat. Lima" REM COMPOSER "" INDEX 01 00:00:00FILE "11. Coburn - We Interrupt This Program (Interrupted vocal mix).wav" WAVE TRACK 11 AUDIO TITLE "We Interrupt This Program (Interrupted vocal mix)" PERFORMER "Coburn" REM COMPOSER "" INDEX 01 00:00:00FILE "12. The Drill - The Drill.wav" WAVE TRACK 12 AUDIO TITLE "The Drill" PERFORMER "The Drill" REM COMPOSER "" INDEX 01 00:00:00FILE "13. Axwell - Feel the Vibe.wav" WAVE TRACK 13 AUDIO TITLE "Feel the Vibe" PERFORMER "Axwell" REM COMPOSER "" INDEX 01 00:00:00FILE "14. Deep Dish vs. Dire Straits - Flashing for Money.wav" WAVE TRACK 14 AUDIO TITLE "Flashing for Money" PERFORMER "Deep Dish vs. Dire Straits" REM COMPOSER "" INDEX 01 00:00:00FILE "15. Trick & Kubic - High (Tom Novy remix).wav" WAVE TRACK 15 AUDIO TITLE "High (Tom Novy remix)" PERFORMER "Trick & Kubic" REM COMPOSER "" INDEX 01 00:00:00FILE "16. Mylo - In My Arms (Tocadisco mix).wav" WAVE TRACK 16 AUDIO TITLE "In My Arms (Tocadisco mix)" PERFORMER "Mylo" REM COMPOSER "" INDEX 01 00:00:00FILE "17. Roman Flugel - Geht's Noch (Steve Angello mix).wav" WAVE TRACK 17 AUDIO TITLE "Geht's Noch? (Steve Angello mix)" PERFORMER "Roman Flugel" REM COMPOSER "" INDEX 01 00:00:00FILE "18. Moonbootica - June (original mix).wav" WAVE TRACK 18 AUDIO TITLE "June (original mix)" PERFORMER "Moonbootica" REM COMPOSER "" INDEX 01 00:00:00FILE "19. Zoo Brazil feat. Emma - Tonight (Skylark mix).wav" WAVE TRACK 19 AUDIO TITLE "Tonight (Skylark mix)" PERFORMER "Zoo Brazil feat. Emma" REM COMPOSER "" INDEX 01 00:00:00

Лог проверки качества

-----------------------
DON'T MODIFY THIS FILE
-----------------------
PERFORMER: auCDtect Task Manager, ver. 1.6.0 RC1 build 1.6.0.1Copyright (c) 2008-2010 y-soft. All rights reservedhttp://y-soft.org
ANALYZER: auCDtect: CD records authenticity detector, version 0.8.2Copyright (c) 2004 Oleg Berngardt. All rights reserved.Copyright (c) 2004 Alexander Djourik. All rights reserved.
FILE: 19 Zoo Brazil feat. Emma - Tonight (Skylark Mix).flac Size: 31477312 Hash: 43F02D97D1248940FFB6F42640662303 Accuracy: -m0 Conclusion: CDDA 100% Signature: EE05B985D5B46F478F1887C38109934584AEACE9FILE: 18 Moonbootica - June (Original Mix).flac Size: 29561308 Hash: C2DCF4D0E37317C2387B01456F49C9F5 Accuracy: -m0 Conclusion: CDDA 99% Signature: 96F30C1F0BEB4B80CF4ABE133ABE75CE0BD41EE3FILE: 16 Mylo - In My Arms (Tocadisco Mix).flac Size: 31167670 Hash: 6209093B3BAE9A6B628BEF8C1F8FF59D Accuracy: -m0 Conclusion: CDDA 100% Signature: 99B029B6E2CD7D41A2CB828F46BB25E054396848FILE: 15 Trick & Cubic - High (Tom Novy Remix).flac Size: 24166805 Hash: 3BBDD56242D288F8F26177928B1C7D24 Accuracy: -m0 Conclusion: CDDA 100% Signature: B5B8DA09E27176A24BFD67B1F6644A137A45EEBEFILE: 14 Deep Dish vs. Dire Straits - Flashing For Money.flac Size: 23695985 Hash: ED3F58BAF98E9031BA838DF2880CBDCE Accuracy: -m0 Conclusion: CDDA 100% Signature: 563BE1E186CF8A2D2CBB20006796252E8A55A721FILE: 13 Axwell - Feel The Vibe (Original).flac Size: 31494017 Hash: A19E85616E9129474EE3BCDA510291F8 Accuracy: -m0 Conclusion: CDDA 100% Signature: 6A8E082BF3BD777FED2AC37D940C908F6ACED536FILE: 12 The Drill - The Drill (Original).flac Size: 34320247 Hash: 548617C0960BE574ABEA242F0396A467 Accuracy: -m0 Conclusion: CDDA 99% Signature: 41946B73D9BDDCEF82BAE143D31AAA9B7E0B4C1AFILE: 11 Coburn - We Interrupt This Program (Interupted VocalMix).flac Size: 22986841 Hash: BF904836A89D4969C5E57D6F75F6E80C Accuracy: -m0 Conclusion: CDDA 100% Signature: C0F5D98CC343E4EA3E2139B7BB12F3AA8F4FEF8DFILE: 10 Tom Novy feat. Lima - Take It (Club Mix).flac Size: 35542625 Hash: 0210BBCBB5A9FBC9C674228C721F13AA Accuracy: -m0 Conclusion: CDDA 100% Signature: 31DDF64ED875FE36A64CB6A7B1F5F69C465CFBEFFILE: 09 Moth feat. Engeline - Foxy (De Loren+Colors Mix).flac Size: 32069444 Hash: 967C19C5ECF2F38CFDA16240EBC9B5DE Accuracy: -m0 Conclusion: CDDA 100% Signature: 8EE5E12A29C345AF7638DAD6839AEF939FF7E9B6FILE: 08 Sydenham & Ferrer - Sandcastles (Ten Velden & Knight Mix).flac Size: 32345458 Hash: E22679F45B00C1665F24ED3C924ACDE4 Accuracy: -m0 Conclusion: CDDA 100% Signature: 708A76DDD90D603821DC0AE009B4753DB51F5E5CFILE: 06 C Mos - 2 Million Ways (Axwell Mix).flac Size: 30745699 Hash: CEB5DAE3B7A1D236AE7111679BDBB1B6 Accuracy: -m0 Conclusion: CDDA 100% Signature: F01FFB690DB669D051BB1474205EA7640D8C4305FILE: 05 Blaze feat. Barbara Tucker - Most Precious Love (DF Future 3000Mix).flac Size: 30763102 Hash: 5E371A801E54E76AEBCCCEA40F5ADD03 Accuracy: -m0 Conclusion: CDDA 100% Signature: 26ED15DAFA7AB78DFF912E52EA3250FC0CC7AB00FILE: 04 JCA - Some Day (Main Mix).flac Size: 23014565 Hash: A845B951B58FA6998FD29F2069A5B4E8 Accuracy: -m0 Conclusion: CDDA 100% Signature: DCC6585601C9632AF8B2BAD4D3D45EBEF3FFCCFFFILE: 03 Ian Pooley - Sumo Illuzija.flac Size: 14071985 Hash: 8DBFE73BCA857EE42E2DF32A10A24694 Accuracy: -m0 Conclusion: CDDA 100% Signature: BC88149EAF9BCE15AEA2E2DB4967A21B0BD65CC6FILE: 02 Deep Dish - Say Hello (Main Mix).flac Size: 30157249 Hash: C5D9FB858B8873181C1755F8D19004A4 Accuracy: -m0 Conclusion: CDDA 99% Signature: A2382BCEE19C1211B4EA05BFF3706A12A219E61BFILE: 01 Andrea Britton - Am I On Your Mind (Steve Porter Mix).flac Size: 33574381 Hash: 12AC89139E9FD79C3497464A0CEB3184 Accuracy: -m0 Conclusion: CDDA 100% Signature: 8E7A7C158726689CCC5F730DA55A16FDD5CEA3CA


[chi5o.com]_t_5230584.torrent
Торрент: Зарегистрирован ·  [ 2019-01-07 11:59 ] ·  ed657f474696d1910a8a47a820416f437853982e

14 KB

Статус: проверено
Скачан: 0 раз
Размер: 619 MB
Оценка: 
(Голосов: 0)
Сказали спасибо: 0  Спасибо
Похожие темы
[Профиль]    [ЛС]
Показать сообщения:    
Ответить на тему

Текущее время: Сегодня 15:51

Часовой пояс: GMT + 7



Вы не можете начинать темы
Вы не можете отвечать на сообщения
Вы не можете редактировать свои сообщения
Вы не можете удалять свои сообщения
Вы не можете голосовать в опросах
Вы не можете прикреплять файлы к сообщениям
Вы можете скачивать файлы


One Piece 381 | Собибор (2018) HDRip от Scarabey | Лицензия | 6 Below: Miracle On The Mountain FRENCH DVDRIP 2018