(Breakbeat, House, Acid Jazz, Downtempo, Drum n Bass) [CD] VA - Connected: 90\'s 12" Mixes - 2008, FLAC (tracks+.cue), lossless

Ответить на тему
Статистика раздачи [Обновить пиров]
Размер:  1.41 GB   |    Зарегистрирован:  17 дней   |    Скачан:  0 раз

Полного источника не было: Никогда

 
   
 
 
 
Автор Сообщение

chi5o.com

Создавать темы 07-Янв-2019 12:29

[Цитировать]

Connected: 90's 12" Mixes
Жанр: Breakbeat, House, Acid Jazz, Downtempo, Drum n Bass
Носитель: CD
Страна-производитель диска (релиза): UK
Год издания: 2008
Издатель (лейбл): Universal Music TV
Номер по каталогу: 5309765
Аудиокодек: FLAC (*.flac)
Тип рипа: tracks+.cue
Битрейт аудио: lossless
Продолжительность: 03:43:35
Источник (релизер): what.cd
Наличие сканов в содержимом раздачи: нет
Треклист:
CD 1:
01 - Stereo MC's - Connected (12'' Mix) (5:12)
02 - Leftfield & Lydon - Open Up (Chemical Brothers Remix) (9:33)
03 - The Blue Boy - Remember Me (12'' Mix) (7:03)
04 - The Beloved - Sun Rising (Tom's Drum & Bass Edit) (8:56)
05 - The Stone Roses - Fools Gold (Bottom Won Mix) (7:01)
06 - England New Order - World In Motion (Carabinieri Mix) (5:54)
07 - The Soup Dragons - I'm Free (12'' Mix) (8:03)
08 - Paul Weller - Wild Wood (Portishead Sheared Wood Remix) (3:28)
09 - Primal Scream - Funky Jam (Club Mix) (5:25)
10 - Kula Shaker - Tattva (Lucky 13 Mix) (4:13)
11 - Moloko - Fun For Me (Doctor Rockit Mix) (6:01)
12 - James - Come Home (Andrew Weatherall Mix) (8:26)
CD 2:
01 - Snap - Rhythm Is A Dancer (Extended Mix) (5:13)
02 - Felix - Don't You Want Me (Hooj Mix) (5:52)
03 - Utah Saints - Something Good (12'' Mix) (5:57)
04 - Electronic - Getting Away With It (Extended Mix) (7:31)
05 - The Grid - Swamp Thing (Southern Comfort Mix) (7:10)
06 - Adamski - Killer (12'' Version) (5:31)
07 - Alison Limerick - Where Love Lives (Knuckles & Morales Classic Mix) (6:52)
08 - Sub Sub Feat. Melanie Williams - Ain't No Love (Ain't No Use) (12'' Version) (5:13)
09 - M People - How Can I Love You More (Classic Mix) (5:16)
10 - Incognito - Always There (Morales Classic Mix) (6:38)
11 - Freakpower - Turn On, Tune In, Cop Out (Pizzaman Mix) (6:50)
12 - Beats International - Dub Be Good To Me (Norman Cook's Excursion Version) (5:42)
CD 3:
01 - Deee-Lite - Groove Is In The Heart (Remix) (4:27)
02 - Diana Brown & Barrie K Sharpe - The Masterplan (12'' Mix) (7:05)
03 - Arrested Development - People Everyday (Metamorphosis Mix) (4:57)
04 - Jamiroquai - When You Gonna Learn (JK Mix) (6:22)
05 - Young Disiples - Apparently Nothin' (Soul River) (5:19)
06 - Martine Gerault - Revival (12'' Mix) (8:38)
07 - Driza Bone - Real Love (Original Mix) (5:13)
08 - James Taylor Quartet - Starsky & Hutch (Funky People Mix) (5:54)
09 - DJ Krush & Ronnie Jordan - So What (Tuff 'N' Smooth Mix) (5:11)
10 - Marxman - All About Eve (Sax 'N' Flute Mix) (7:27)
11 - Omar - There's Nothing Like This (6:00)
12 - Tricky - Aftermath (LP Mix) (4:01)

Discogs.com

Лог создания рипаCD 1

Exact Audio Copy V1.0 beta 1 from 15. November 2010
EAC extraction logfile from 2. March 2011, 23:27
Various / Connected: 90's 12'' Mixes [CD1]
Used drive : TSSTcorpDVD+-RW TS-L632H Adapter: 0 ID: 0
Read mode : SecureUtilize accurate stream : YesDefeat audio cache : YesMake use of C2 pointers : No
Read offset correction : 6Overread into Lead-In and Lead-Out : NoFill up missing offset samples with silence : YesDelete leading and trailing silent blocks : NoNull samples used in CRC calculations : YesUsed interface : Native Win32 interface for Win NT & 2000Gap handling : Appended to previous track
Used output format : User Defined EncoderSelected bitrate : 1024 kBit/sQuality : HighAdd ID3 tag : NoCommand line compressor : C:\Program Files\Exact Audio Copy\FLAC\FLAC.EXEAdditional command line options : -V -8 -T "artist=%a" -T "title=%t" -T "album=%g" -T "date=%y" -T "tracknumber=%n" -T "genre=%m" %s
TOC of the extracted CD
Track | Start | Length | Start sector | End sector --------------------------------------------------------- 1 | 0:00.00 | 5:11.46 | 0 | 23370 2 | 5:11.46 | 9:33.21 | 23371 | 66366 3 | 14:44.67 | 7:03.25 | 66367 | 98116 4 | 21:48.17 | 8:56.29 | 98117 | 138345 5 | 30:44.46 | 7:00.40 | 138346 | 169885 6 | 37:45.11 | 5:53.44 | 169886 | 196404 7 | 43:38.55 | 8:02.63 | 196405 | 232617 8 | 51:41.43 | 3:27.44 | 232618 | 248186 9 | 55:09.12 | 5:25.11 | 248187 | 272572 10 | 60:34.23 | 4:13.37 | 272573 | 291584 11 | 64:47.60 | 6:01.27 | 291585 | 318686 12 | 70:49.12 | 8:25.60 | 318687 | 356621
Track 1
Filename H:\FLAC1\0\0upload\Various - Connected- 90's 12'' Mixes [CD1] [2007]\01 - Connected (12'' Mix).wav
Pre-gap length 0:00:02.00
Peak level 98.8 % Extraction speed 3.0 X Track quality 100.0 % Test CRC B5564A46 Copy CRC B5564A46 Accurately ripped (confidence 18) [466C7DC8] Copy OK
Track 2
Filename H:\FLAC1\0\0upload\Various - Connected- 90's 12'' Mixes [CD1] [2007]\02 - Open Up (Chemical Brothers Remix).wav
Pre-gap length 0:00:00.44
Peak level 98.8 % Extraction speed 3.6 X Track quality 100.0 % Test CRC 012FAD08 Copy CRC 012FAD08 Accurately ripped (confidence 17) [90E9D29D] Copy OK
Track 3
Filename H:\FLAC1\0\0upload\Various - Connected- 90's 12'' Mixes [CD1] [2007]\03 - Remember Me (12'' Mix).wav
Pre-gap length 0:00:00.49
Peak level 98.8 % Extraction speed 4.0 X Track quality 100.0 % Test CRC CF6C409C Copy CRC CF6C409C Accurately ripped (confidence 18) [1AA9CA6D] Copy OK
Track 4
Filename H:\FLAC1\0\0upload\Various - Connected- 90's 12'' Mixes [CD1] [2007]\04 - Sun Rising (Tom's Drum & Bass Edit).wav
Pre-gap length 0:00:00.38
Peak level 98.8 % Extraction speed 4.5 X Track quality 100.0 % Test CRC E1F6235A Copy CRC E1F6235A Accurately ripped (confidence 17) [01304D40] Copy OK
Track 5
Filename H:\FLAC1\0\0upload\Various - Connected- 90's 12'' Mixes [CD1] [2007]\05 - Fools Gold (Bottom Won Mix).wav
Pre-gap length 0:00:00.44
Peak level 98.8 % Extraction speed 4.7 X Track quality 100.0 % Test CRC 6B60A11D Copy CRC 6B60A11D Accurately ripped (confidence 18) [265061B9] Copy OK
Track 6
Filename H:\FLAC1\0\0upload\Various - Connected- 90's 12'' Mixes [CD1] [2007]\06 - World In Motion (Carabinieri Mix).wav
Pre-gap length 0:00:00.33
Peak level 98.8 % Extraction speed 4.9 X Track quality 100.0 % Test CRC 2B85C4F4 Copy CRC 2B85C4F4 Accurately ripped (confidence 17) [37594165] Copy OK
Track 7
Filename H:\FLAC1\0\0upload\Various - Connected- 90's 12'' Mixes [CD1] [2007]\07 - I'm Free (12'' Mix).wav
Pre-gap length 0:00:00.70
Peak level 98.8 % Extraction speed 5.3 X Track quality 100.0 % Test CRC A1105DE6 Copy CRC A1105DE6 Accurately ripped (confidence 17) [F9045EE3] Copy OK
Track 8
Filename H:\FLAC1\0\0upload\Various - Connected- 90's 12'' Mixes [CD1] [2007]\08 - Wild Wood (Portishead Sheared Wood Remix).wav
Pre-gap length 0:00:00.17
Peak level 98.8 % Extraction speed 5.0 X Track quality 100.0 % Test CRC 3886FBDB Copy CRC 3886FBDB Accurately ripped (confidence 15) [743F0658] Copy OK
Track 9
Filename H:\FLAC1\0\0upload\Various - Connected- 90's 12'' Mixes [CD1] [2007]\09 - Funky Jam (Club Mix).wav
Pre-gap length 0:00:01.08
Peak level 98.8 % Extraction speed 5.5 X Track quality 100.0 % Test CRC 857D6660 Copy CRC 857D6660 Accurately ripped (confidence 17) [BC20F66A] Copy OK
Track 10
Filename H:\FLAC1\0\0upload\Various - Connected- 90's 12'' Mixes [CD1] [2007]\10 - Tattva (Lucky 13 Mix).wav
Pre-gap length 0:00:00.38
Peak level 89.1 % Extraction speed 5.5 X Track quality 100.0 % Test CRC 4F1AA42C Copy CRC 4F1AA42C Accurately ripped (confidence 15) [D2EFB612] Copy OK
Track 11
Filename H:\FLAC1\0\0upload\Various - Connected- 90's 12'' Mixes [CD1] [2007]\11 - Fun For Me (Doctor Rockit Mix).wav
Pre-gap length 0:00:00.46
Peak level 98.8 % Extraction speed 5.9 X Track quality 100.0 % Test CRC 24D7C9A3 Copy CRC 24D7C9A3 Accurately ripped (confidence 15) [23F9BC73] Copy OK
Track 12
Filename H:\FLAC1\0\0upload\Various - Connected- 90's 12'' Mixes [CD1] [2007]\12 - Come Home (Andrew Weatherall Mix).wav
Pre-gap length 0:00:00.53
Peak level 98.8 % Extraction speed 6.3 X Track quality 100.0 % Test CRC 0E89C25F Copy CRC 0E89C25F Accurately ripped (confidence 15) [448E8B20] Copy OK
All tracks accurately ripped
No errors occurred
End of status report
==== Log checksum 37A49CEA13F48CA10119A4A7DF57B08FAAE78577FC80D41D8CE24C5597933E4C ====

CD 2

Exact Audio Copy V1.0 beta 1 from 15. November 2010
EAC extraction logfile from 3. March 2011, 0:24
Various / Connected: 90's 12'' Mixes [CD2]
Used drive : TSSTcorpDVD+-RW TS-L632H Adapter: 0 ID: 0
Read mode : SecureUtilize accurate stream : YesDefeat audio cache : YesMake use of C2 pointers : No
Read offset correction : 6Overread into Lead-In and Lead-Out : NoFill up missing offset samples with silence : YesDelete leading and trailing silent blocks : NoNull samples used in CRC calculations : YesUsed interface : Native Win32 interface for Win NT & 2000Gap handling : Appended to previous track
Used output format : User Defined EncoderSelected bitrate : 1024 kBit/sQuality : HighAdd ID3 tag : NoCommand line compressor : C:\Program Files\Exact Audio Copy\FLAC\FLAC.EXEAdditional command line options : -V -8 -T "artist=%a" -T "title=%t" -T "album=%g" -T "date=%y" -T "tracknumber=%n" -T "genre=%m" %s
TOC of the extracted CD
Track | Start | Length | Start sector | End sector --------------------------------------------------------- 1 | 0:00.00 | 5:13.09 | 0 | 23483 2 | 5:13.09 | 5:51.74 | 23484 | 49882 3 | 11:05.08 | 5:56.64 | 49883 | 76646 4 | 17:01.72 | 7:31.01 | 76647 | 110472 5 | 24:32.73 | 7:10.31 | 110473 | 142753 6 | 31:43.29 | 5:31.25 | 142754 | 167603 7 | 37:14.54 | 6:51.70 | 167604 | 198498 8 | 44:06.49 | 5:13.29 | 198499 | 222002 9 | 49:20.03 | 5:15.61 | 222003 | 245688 10 | 54:35.64 | 6:37.45 | 245689 | 275508 11 | 61:13.34 | 6:49.73 | 275509 | 306256 12 | 68:03.32 | 5:42.22 | 306257 | 331928
Track 1
Filename H:\FLAC1\0\0upload\Various - Connected- 90's 12'' Mixes [CD2] [2008]\01 - Rhythm Is A Dancer (Extended Mix).wav
Pre-gap length 0:00:02.00
Peak level 98.8 % Extraction speed 2.5 X Track quality 99.9 % Test CRC E67C17A9 Copy CRC E67C17A9 Accurately ripped (confidence 18) [F87AD5C5] Copy OK
Track 2
Filename H:\FLAC1\0\0upload\Various - Connected- 90's 12'' Mixes [CD2] [2008]\02 - Don't You Want Me (Hooj Mix).wav
Pre-gap length 0:00:00.13
Peak level 98.8 % Extraction speed 2.9 X Track quality 99.9 % Test CRC AE3196E1 Copy CRC AE3196E1 Accurately ripped (confidence 18) [88FCB564] Copy OK
Track 3
Filename H:\FLAC1\0\0upload\Various - Connected- 90's 12'' Mixes [CD2] [2008]\03 - Something Good (12'' Mix).wav
Pre-gap length 0:00:00.57
Peak level 98.8 % Extraction speed 3.5 X Track quality 100.0 % Test CRC 36268619 Copy CRC 36268619 Accurately ripped (confidence 19) [D6DD9EDA] Copy OK
Track 4
Filename H:\FLAC1\0\0upload\Various - Connected- 90's 12'' Mixes [CD2] [2008]\04 - Getting Away With It (Extended Mix).wav
Pre-gap length 0:00:00.14
Peak level 98.8 % Extraction speed 4.0 X Track quality 100.0 % Test CRC 8DD564B4 Copy CRC 8DD564B4 Accurately ripped (confidence 17) [170538AC] Copy OK
Track 5
Filename H:\FLAC1\0\0upload\Various - Connected- 90's 12'' Mixes [CD2] [2008]\05 - Swamp Thing (Southern Comfort Mix).wav
Pre-gap length 0:00:00.97
Peak level 98.8 % Extraction speed 4.3 X Track quality 100.0 % Test CRC BEA4F7FC Copy CRC BEA4F7FC Accurately ripped (confidence 17) [D146F03A] Copy OK
Track 6
Filename H:\FLAC1\0\0upload\Various - Connected- 90's 12'' Mixes [CD2] [2008]\06 - Killer (12'' Version).wav
Pre-gap length 0:00:01.02
Peak level 98.8 % Extraction speed 4.3 X Track quality 100.0 % Test CRC 24B93D84 Copy CRC 24B93D84 Accurately ripped (confidence 17) [AB6A33BC] Copy OK
Track 7
Filename H:\FLAC1\0\0upload\Various - Connected- 90's 12'' Mixes [CD2] [2008]\07 - Where Love Lives (Knuckles & Morales Classic Mix).wav
Pre-gap length 0:00:00.42
Peak level 98.8 % Extraction speed 4.8 X Track quality 100.0 % Test CRC DBEFC248 Copy CRC DBEFC248 Accurately ripped (confidence 17) [D735833A] Copy OK
Track 8
Filename H:\FLAC1\0\0upload\Various - Connected- 90's 12'' Mixes [CD2] [2008]\08 - Ain't No Love (Ain't No Use) (12'' Version).wav
Pre-gap length 0:00:00.38
Peak level 98.8 % Extraction speed 4.9 X Track quality 100.0 % Test CRC ECE56155 Copy CRC ECE56155 Accurately ripped (confidence 18) [5409391C] Copy OK
Track 9
Filename H:\FLAC1\0\0upload\Various - Connected- 90's 12'' Mixes [CD2] [2008]\09 - How Can I Love You More (Classic Mix).wav
Pre-gap length 0:00:00.42
Peak level 98.8 % Extraction speed 5.0 X Track quality 100.0 % Test CRC 4613A372 Copy CRC 4613A372 Accurately ripped (confidence 16) [5C0E9D7F] Copy OK
Track 10
Filename H:\FLAC1\0\0upload\Various - Connected- 90's 12'' Mixes [CD2] [2008]\10 - Always There (Morales Classic Mix).wav
Pre-gap length 0:00:01.01
Peak level 98.8 % Extraction speed 5.4 X Track quality 100.0 % Test CRC 104B3581 Copy CRC 104B3581 Accurately ripped (confidence 18) [233EF384] Copy OK
Track 11
Filename H:\FLAC1\0\0upload\Various - Connected- 90's 12'' Mixes [CD2] [2008]\11 - Turn On, Tune In, Cop Out (Pizzaman Mix).wav
Pre-gap length 0:00:00.81
Peak level 98.8 % Extraction speed 5.6 X Track quality 100.0 % Test CRC D72B2F97 Copy CRC D72B2F97 Accurately ripped (confidence 15) [19CC38C0] Copy OK
Track 12
Filename H:\FLAC1\0\0upload\Various - Connected- 90's 12'' Mixes [CD2] [2008]\12 - Dub Be Good To Me (Norman Cook's Excursion Version).wav
Pre-gap length 0:00:00.17
Peak level 98.8 % Extraction speed 5.7 X Track quality 100.0 % Test CRC 7CCABFF2 Copy CRC 7CCABFF2 Accurately ripped (confidence 15) [F57173C9] Copy OK
All tracks accurately ripped
No errors occurred
End of status report
==== Log checksum 557FC0F7D7294252754E93CB4B4B880B724F78D46C3913930EA96AE76B7B6784 ====

CD 3

Exact Audio Copy V1.0 beta 1 from 15. November 2010
EAC extraction logfile from 3. March 2011, 1:05
Various / Connected: 90's 12'' Mixes [CD3]
Used drive : TSSTcorpDVD+-RW TS-L632H Adapter: 0 ID: 0
Read mode : SecureUtilize accurate stream : YesDefeat audio cache : YesMake use of C2 pointers : No
Read offset correction : 6Overread into Lead-In and Lead-Out : NoFill up missing offset samples with silence : YesDelete leading and trailing silent blocks : NoNull samples used in CRC calculations : YesUsed interface : Native Win32 interface for Win NT & 2000Gap handling : Appended to previous track
Used output format : User Defined EncoderSelected bitrate : 1024 kBit/sQuality : HighAdd ID3 tag : NoCommand line compressor : C:\Program Files\Exact Audio Copy\FLAC\FLAC.EXEAdditional command line options : -V -8 -T "artist=%a" -T "title=%t" -T "album=%g" -T "date=%y" -T "tracknumber=%n" -T "genre=%m" %s
TOC of the extracted CD
Track | Start | Length | Start sector | End sector --------------------------------------------------------- 1 | 0:00.00 | 4:26.53 | 0 | 20002 2 | 4:26.53 | 7:05.01 | 20003 | 51878 3 | 11:31.54 | 4:56.66 | 51879 | 74144 4 | 16:28.45 | 6:21.47 | 74145 | 102766 5 | 22:50.17 | 5:19.06 | 102767 | 126697 6 | 28:09.23 | 8:38.05 | 126698 | 165552 7 | 36:47.28 | 5:13.36 | 165553 | 189063 8 | 42:00.64 | 5:54.03 | 189064 | 215616 9 | 47:54.67 | 5:11.17 | 215617 | 238958 10 | 53:06.09 | 7:26.74 | 238959 | 272482 11 | 60:33.08 | 6:00.27 | 272483 | 299509 12 | 66:33.35 | 4:01.19 | 299510 | 317603
Track 1
Filename H:\FLAC1\0\0upload\Various - Connected- 90's 12'' Mixes [CD3] [2008]\01 - Groove Is In The Heart (Remix).wav
Pre-gap length 0:00:02.00
Peak level 98.8 % Extraction speed 2.6 X Track quality 100.0 % Test CRC 6EE37567 Copy CRC 6EE37567 Accurately ripped (confidence 17) [8DCA70E5] Copy OK
Track 2
Filename H:\FLAC1\0\0upload\Various - Connected- 90's 12'' Mixes [CD3] [2008]\02 - The Masterplan (12'' Mix).wav
Pre-gap length 0:00:00.58
Peak level 98.8 % Extraction speed 3.1 X Track quality 100.0 % Test CRC 23F78910 Copy CRC 23F78910 Accurately ripped (confidence 17) [5FB2FCF8] Copy OK
Track 3
Filename H:\FLAC1\0\0upload\Various - Connected- 90's 12'' Mixes [CD3] [2008]\03 - People Everyday (Metamorphosis Mix).wav
Pre-gap length 0:00:00.10
Peak level 98.8 % Extraction speed 3.0 X Track quality 99.9 % Test CRC E18C258E Copy CRC E18C258E Accurately ripped (confidence 16) [ECF9EE5B] Copy OK
Track 4
Filename H:\FLAC1\0\0upload\Various - Connected- 90's 12'' Mixes [CD3] [2008]\04 - When You Gonna Learn (JK Mix).wav
Pre-gap length 0:00:00.56
Peak level 98.8 % Extraction speed 3.8 X Track quality 100.0 % Test CRC A7DE04CE Copy CRC A7DE04CE Accurately ripped (confidence 16) [F015B0AD] Copy OK
Track 5
Filename H:\FLAC1\0\0upload\Various - Connected- 90's 12'' Mixes [CD3] [2008]\05 - Apparently Nothin' (Soul River).wav
Pre-gap length 0:00:00.37
Peak level 98.8 % Extraction speed 3.9 X Track quality 100.0 % Test CRC 80F83950 Copy CRC 80F83950 Accurately ripped (confidence 18) [2970F743] Copy OK
Track 6
Filename H:\FLAC1\0\0upload\Various - Connected- 90's 12'' Mixes [CD3] [2008]\06 - Revival (12'' Mix).wav
Pre-gap length 0:00:00.44
Peak level 98.8 % Extraction speed 4.4 X Track quality 100.0 % Test CRC DE54AAE3 Copy CRC DE54AAE3 Accurately ripped (confidence 16) [CB568135] Copy OK
Track 7
Filename H:\FLAC1\0\0upload\Various - Connected- 90's 12'' Mixes [CD3] [2008]\07 - Real Love (Original Mix).wav
Pre-gap length 0:00:00.37
Peak level 98.8 % Extraction speed 4.0 X Track quality 99.9 % Test CRC 01F90B9D Copy CRC 01F90B9D Accurately ripped (confidence 17) [DC9A3F26] Copy OK
Track 8
Filename H:\FLAC1\0\0upload\Various - Connected- 90's 12'' Mixes [CD3] [2008]\08 - Starsky & Hutch (Funky People Mix).wav
Pre-gap length 0:00:00.58
Peak level 98.8 % Extraction speed 4.8 X Track quality 100.0 % Test CRC 7235154F Copy CRC 7235154F Accurately ripped (confidence 16) [B5AEAE77] Copy OK
Track 9
Filename H:\FLAC1\0\0upload\Various - Connected- 90's 12'' Mixes [CD3] [2008]\09 - So What (Tuff 'N' Smooth Mix).wav
Pre-gap length 0:00:01.25
Peak level 98.8 % Extraction speed 4.9 X Track quality 100.0 % Test CRC 9FD6AC80 Copy CRC 9FD6AC80 Accurately ripped (confidence 16) [E2670FE7] Copy OK
Track 10
Filename H:\FLAC1\0\0upload\Various - Connected- 90's 12'' Mixes [CD3] [2008]\10 - All About Eve (Sax 'N' Flute Mix).wav
Pre-gap length 0:00:00.29
Peak level 98.8 % Extraction speed 5.3 X Track quality 100.0 % Test CRC 29F78A08 Copy CRC 29F78A08 Accurately ripped (confidence 16) [3B6FBB04] Copy OK
Track 11
Filename H:\FLAC1\0\0upload\Various - Connected- 90's 12'' Mixes [CD3] [2008]\11 - There's Nothing Like This.wav
Pre-gap length 0:00:00.86
Peak level 98.8 % Extraction speed 5.4 X Track quality 100.0 % Test CRC E7EFA67F Copy CRC E7EFA67F Accurately ripped (confidence 15) [FE483963] Copy OK
Track 12
Filename H:\FLAC1\0\0upload\Various - Connected- 90's 12'' Mixes [CD3] [2008]\12 - Aftermath (LP Mix).wav
Pre-gap length 0:00:00.84
Peak level 98.8 % Extraction speed 5.2 X Track quality 100.0 % Test CRC 0C81ABEA Copy CRC 0C81ABEA Accurately ripped (confidence 15) [992C0753] Copy OK
All tracks accurately ripped
No errors occurred
End of status report
==== Log checksum AF9AF617A0DDEF66016D00C24398C0A6DA630456977EDB0F3AC36128D07CE6CA ====

Содержание индексной карты (.CUE)CD 1

REM GENRE "Breakbeat, House, Acid Jazz, Downtempo, Drum n Bass"REM DATE 2008REM DISCID 9B12920CREM COMMENT "ExactAudioCopy v1.0b1"PERFORMER "Various"TITLE "Connected: 90's 12'' Mixes"FILE "01 - Stereo MC's - Connected (12'' Mix).wav" WAVE TRACK 01 AUDIO TITLE "Connected (12'' Mix)" PERFORMER "Stereo MC's" INDEX 01 00:00:00 TRACK 02 AUDIO TITLE "Open Up (Chemical Brothers Remix)" PERFORMER "Leftfield & Lydon" INDEX 00 05:11:13FILE "02 - Leftfield & Lydon - Open Up (Chemical Brothers Remix).wav" WAVE INDEX 01 00:00:00 TRACK 03 AUDIO TITLE "Remember Me (12'' Mix)" PERFORMER "The Blue Boy" INDEX 00 09:32:59FILE "03 - The Blue Boy - Remember Me (12'' Mix).wav" WAVE INDEX 01 00:00:00 TRACK 04 AUDIO TITLE "Sun Rising (Tom's Drum & Bass Edit)" PERFORMER "The Beloved" INDEX 00 07:02:71FILE "04 - The Beloved - Sun Rising (Tom's Drum & Bass Edit).wav" WAVE INDEX 01 00:00:00 TRACK 05 AUDIO TITLE "Fools Gold (Bottom Won Mix)" PERFORMER "The Stone Roses" INDEX 00 08:55:71FILE "05 - The Stone Roses - Fools Gold (Bottom Won Mix).wav" WAVE INDEX 01 00:00:00 TRACK 06 AUDIO TITLE "World In Motion (Carabinieri Mix)" PERFORMER "England New Order" INDEX 00 07:00:15FILE "06 - England New Order - World In Motion (Carabinieri Mix).wav" WAVE INDEX 01 00:00:00 TRACK 07 AUDIO TITLE "I'm Free (12'' Mix)" PERFORMER "The Soup Dragons" INDEX 00 05:52:66FILE "07 - The Soup Dragons - I'm Free (12'' Mix).wav" WAVE INDEX 01 00:00:00 TRACK 08 AUDIO TITLE "Wild Wood (Portishead Sheared Wood Remix)" PERFORMER "Paul Weller" INDEX 00 08:02:50FILE "08 - Paul Weller - Wild Wood (Portishead Sheared Wood Remix).wav" WAVE INDEX 01 00:00:00 TRACK 09 AUDIO TITLE "Funky Jam (Club Mix)" PERFORMER "Primal Scream" INDEX 00 03:26:38FILE "09 - Primal Scream - Funky Jam (Club Mix).wav" WAVE INDEX 01 00:00:00 TRACK 10 AUDIO TITLE "Tattva (Lucky 13 Mix)" PERFORMER "Kula Shaker" INDEX 00 05:24:57FILE "10 - Kula Shaker - Tattva (Lucky 13 Mix).wav" WAVE INDEX 01 00:00:00 TRACK 11 AUDIO TITLE "Fun For Me (Doctor Rockit Mix)" PERFORMER "Moloko" INDEX 00 04:13:02FILE "11 - Moloko - Fun For Me (Doctor Rockit Mix).wav" WAVE INDEX 01 00:00:00 TRACK 12 AUDIO TITLE "Come Home (Andrew Weatherall Mix)" PERFORMER "James" INDEX 00 06:00:62FILE "12 - James - Come Home (Andrew Weatherall Mix).wav" WAVE INDEX 01 00:00:00

CD 2

REM GENRE "Breakbeat, House, Acid Jazz, Downtempo, Drum n Bass"REM DATE 2008REM DISCID B011490CREM COMMENT "ExactAudioCopy v1.0b1"PERFORMER "VARIOUS"TITLE "Connected: 90's 12'' Mixes"FILE "01 - Snap - Rhythm Is A Dancer (Extended Mix).wav" WAVE TRACK 01 AUDIO TITLE "Rhythm Is A Dancer (Extended Mix)" PERFORMER "Snap" INDEX 01 00:00:00 TRACK 02 AUDIO TITLE "Don't You Want Me (Hooj Mix)" PERFORMER "Felix" INDEX 00 05:12:74FILE "02 - Felix - Don't You Want Me (Hooj Mix).wav" WAVE INDEX 01 00:00:00 TRACK 03 AUDIO TITLE "Something Good (12'' Mix)" PERFORMER "Utah Saints" INDEX 00 05:51:31FILE "03 - Utah Saints - Something Good (12'' Mix).wav" WAVE INDEX 01 00:00:00 TRACK 04 AUDIO TITLE "Getting Away With It (Extended Mix)" PERFORMER "Electronic" INDEX 00 05:56:53FILE "04 - Electronic - Getting Away With It (Extended Mix).wav" WAVE INDEX 01 00:00:00 TRACK 05 AUDIO TITLE "Swamp Thing (Southern Comfort Mix)" PERFORMER "The Grid" INDEX 00 07:30:03FILE "05 - The Grid - Swamp Thing (Southern Comfort Mix).wav" WAVE INDEX 01 00:00:00 TRACK 06 AUDIO TITLE "Killer (12'' Version)" PERFORMER "Adamski" INDEX 00 07:09:29FILE "06 - Adamski - Killer (12'' Version).wav" WAVE INDEX 01 00:00:00 TRACK 07 AUDIO TITLE "Where Love Lives (Knuckles & Morales Classic Mix)" PERFORMER "Alison Limerick" INDEX 00 05:30:68FILE "07 - Alison Limerick - Where Love Lives (Knuckles & Morales Classic Mix).wav" WAVE INDEX 01 00:00:00 TRACK 08 AUDIO TITLE "Ain't No Love (Ain't No Use) (12'' Version)" PERFORMER "Sub Sub Feat. Melanie Williams" INDEX 00 06:51:41FILE "08 - Sub Sub Feat. Melanie Williams - Ain't No Love (Ain't No Use) (12'' Version).wav" WAVE INDEX 01 00:00:00 TRACK 09 AUDIO TITLE "How Can I Love You More (Classic Mix)" PERFORMER "M People" INDEX 00 05:12:72FILE "09 - M People - How Can I Love You More (Classic Mix).wav" WAVE INDEX 01 00:00:00 TRACK 10 AUDIO TITLE "Always There (Morales Classic Mix)" PERFORMER "Incognito" INDEX 00 05:14:60FILE "10 - Incognito - Always There (Morales Classic Mix).wav" WAVE INDEX 01 00:00:00 TRACK 11 AUDIO TITLE "Turn On, Tune In, Cop Out (Pizzaman Mix)" PERFORMER "Freakpower" INDEX 00 06:36:59FILE "11 - Freakpower - Turn On, Tune In, Cop Out (Pizzaman Mix).wav" WAVE INDEX 01 00:00:00 TRACK 12 AUDIO TITLE "Dub Be Good To Me (Norman Cook's Excursion Version)" PERFORMER "Beats International" INDEX 00 06:49:60FILE "12 - Beats International - Dub Be Good To Me (Norman Cook's Excursion Version).wav" WAVE INDEX 01 00:00:00

CD 3

REM GENRE "Breakbeat, House, Acid Jazz, Downtempo, Drum n Bass"REM DATE 2008REM DISCID C2108A0CREM COMMENT "ExactAudioCopy v1.0b1"PERFORMER "Various"TITLE "Connected: 90's 12'' Mixes [CD3]"FILE "01 - Deee-Lite - Groove Is In The Heart (Remix).wav" WAVE TRACK 01 AUDIO TITLE "Groove Is In The Heart (Remix)" PERFORMER "Deee-Lite" INDEX 01 00:00:00 TRACK 02 AUDIO TITLE "The Masterplan (12'' Mix)" PERFORMER "Diana Brown & Barrie K Sharpe" INDEX 00 04:26:09FILE "02 - Diana Brown & Barrie K Sharpe - The Masterplan (12'' Mix).wav" WAVE INDEX 01 00:00:00 TRACK 03 AUDIO TITLE "People Everyday (Metamorphosis Mix)" PERFORMER "Arrested Development" INDEX 00 07:04:68FILE "03 - Arrested Development - People Everyday (Metamorphosis Mix).wav" WAVE INDEX 01 00:00:00 TRACK 04 AUDIO TITLE "When You Gonna Learn (JK Mix)" PERFORMER "Jamiroquai" INDEX 00 04:56:24FILE "04 - Jamiroquai - When You Gonna Learn (JK Mix).wav" WAVE INDEX 01 00:00:00 TRACK 05 AUDIO TITLE "Apparently Nothin' (Soul River)" PERFORMER "Young Disiples" INDEX 00 06:21:19FILE "05 - Young Disiples - Apparently Nothin' (Soul River).wav" WAVE INDEX 01 00:00:00 TRACK 06 AUDIO TITLE "Revival (12'' Mix)" PERFORMER "Martine Gerault" INDEX 00 05:18:48FILE "06 - Martine Gerault - Revival (12'' Mix).wav" WAVE INDEX 01 00:00:00 TRACK 07 AUDIO TITLE "Real Love (Original Mix)" PERFORMER "Driza Bone" INDEX 00 08:37:52FILE "07 - Driza Bone - Real Love (Original Mix).wav" WAVE INDEX 01 00:00:00 TRACK 08 AUDIO TITLE "Starsky & Hutch (Funky People Mix)" PERFORMER "James Taylor Quartet" INDEX 00 05:12:67FILE "08 - James Taylor Quartet - Starsky & Hutch (Funky People Mix).wav" WAVE INDEX 01 00:00:00 TRACK 09 AUDIO TITLE "So What (Tuff 'N' Smooth Mix)" PERFORMER "DJ Krush & Ronnie Jordan" INDEX 00 05:52:59FILE "09 - DJ Krush & Ronnie Jordan - So What (Tuff 'N' Smooth Mix).wav" WAVE INDEX 01 00:00:00 TRACK 10 AUDIO TITLE "All About Eve (Sax 'N' Flute Mix)" PERFORMER "Marxman" INDEX 00 05:10:70FILE "10 - Marxman - All About Eve (Sax 'N' Flute Mix).wav" WAVE INDEX 01 00:00:00 TRACK 11 AUDIO TITLE "There's Nothing Like This" PERFORMER "Omar" INDEX 00 07:26:09FILE "11 - Omar - There's Nothing Like This.wav" WAVE INDEX 01 00:00:00 TRACK 12 AUDIO TITLE "Aftermath (LP Mix)" PERFORMER "Tricky" INDEX 00 05:59:39FILE "12 - Tricky - Aftermath (LP Mix).wav" WAVE INDEX 01 00:00:00


[chi5o.com]_t_5662103.torrent
Торрент: Зарегистрирован ·  [ 2019-01-07 11:59 ] ·  3b227072ac9f57115ceb6fc1f065b48b9f5c2ffa

455 KB

Статус: проверено
Скачан: 0 раз
Размер: 1.41 GB
Оценка: 
(Голосов: 0)
Сказали спасибо: 0  Спасибо
Похожие темы
[Профиль]    [ЛС]
Показать сообщения:    
Ответить на тему

Текущее время: Сегодня 16:00

Часовой пояс: GMT + 7



Вы не можете начинать темы
Вы не можете отвечать на сообщения
Вы не можете редактировать свои сообщения
Вы не можете удалять свои сообщения
Вы не можете голосовать в опросах
Вы не можете прикреплять файлы к сообщениям
Вы можете скачивать файлы


Antieke & Zeldzame Boeken | Dinosaur | Up and Away