Раздетая для убийства / Stripped to Kill (Кэтт Ши / Katt Shea) [1987, США, Ужасы, триллер, драма, криминал, детектив, HDRip] AVO (А. Дольский) + Original Eng

Ответить на тему
Статистика раздачи [Обновить пиров]
Размер:  1.44 GB   |    Зарегистрирован:  16 дней   |    Скачан:  0 раз

Полного источника не было: Никогда

 
   
 
 
 
Автор Сообщение

chi5o.com

Создавать темы 07-Янв-2019 01:37

[Цитировать]

Раздетая для убийства / Stripped to Kill
Страна: США
Жанр: Ужасы, триллер, драма, криминал, детектив
Год выхода: 1987
Продолжительность: 01:26:32
Перевод: Авторский (одноголосый закадровый) А. Дольский
Субтитры: нет
Оригинальная аудиодорожка: английский
Режиссер: Кэтт Ши / Katt Shea
В ролях: Кэй Ленц
Грег Эвиган
Норман Фелл
Pia Kamakahi
Трэйси Краудер
Дэбби Нассар
Люсия Лексингтон
Carlye Byron
Афина Уорси
Мишель Формен
Описание: Кто-то убивает исполнительниц стриптиза из ночного клуба в Лос-Анджелесе. Женщина-детектив должна раскрыть эти преступления и потому внедряется в клуб.
Доп. информация: Звуковая дорожка найдена и синхронизирована из сети
Видеоряд найден в сети
Сэмпл: http://yadi.sk/i/qYiO9BsKdMQqcg
Качество видео: HDRip
Формат файла: AVI
Видео: XviD , 720x400 (1.80:1), 23.976 fps, 1 986 Kbps
Аудио: AC3 , 48 kHz , 192.00 kbps avg , 2/0 (L,R) ch
Аудио 2: AC3 , 48 kHz , 192.00 kbps avg , 2/0 (L,R) ch

MediaInfo

Complete name Раздетая для убийства 1987 (Dolskiy).aviFormat : AVIFormat/Info : Audio Video InterleaveFile size : 1.44 GiBDuration : 1h 26mnOverall bit rate : 2 384 KbpsWriting application : VirtualDubMod 1.5.10.3 | www.virtualdub-fr.org || (build 2550/release)Writing library : VirtualDubMod build 2550/release
VideoID : 0Format : MPEG-4 VisualFormat profile : Advanced Simple@L5Format settings, BVOP : 1Format settings, QPel : NoFormat settings, GMC : No warppointsFormat settings, Matrix : CustomCodec ID : XVIDCodec ID/Hint : XviDDuration : 1h 26mnBit rate : 1 986 KbpsWidth : 720 pixelsHeight : 400 pixelsDisplay aspect ratio : 16:9Frame rate : 23.976 (23976/1000) fpsColor space : YUVChroma subsampling : 4:2:0Bit depth : 8 bitsScan type : ProgressiveCompression mode : LossyBits/(Pixel*Frame) : 0.288Stream size : 1.20 GiB (83%)Writing library : XviD 73
Audio #1ID : 1Format : AC-3Format/Info : Audio Coding 3Mode extension : CM (complete main)Format settings, Endianness : BigCodec ID : 2000Duration : 1h 26mnBit rate mode : ConstantBit rate : 192 KbpsChannel(s) : 2 channelsChannel positions : Front: L RSampling rate : 48.0 KHzFrame rate : 31.250 fps (1536 spf)Compression mode : LossyDelay relative to video : 180msStream size : 119 MiB (8%)Alignment : Split accross interleavesInterleave, duration : 42 ms (1.00 video frame)Interleave, preload duratio : 500 ms
Audio #2ID : 2Format : AC-3Format/Info : Audio Coding 3Mode extension : CM (complete main)Format settings, Endianness : BigCodec ID : 2000Duration : 1h 26mnBit rate mode : ConstantBit rate : 192 KbpsChannel(s) : 2 channelsChannel positions : Front: L RSampling rate : 48.0 KHzFrame rate : 31.250 fps (1536 spf)Compression mode : LossyDelay relative to video : 180msStream size : 119 MiB (8%)Alignment : Split accross interleavesInterleave, duration : 42 ms (1.00 video frame)Interleave, preload duratio : 500 ms

Скриншоты



[chi5o.com]_t_5670536.torrent
Торрент: Зарегистрирован ·  [ 2019-01-07 01:37 ] ·  b7d55fae0e32203c7f131f8cba914b73fc004f27

15 KB

Статус: проверено
Скачан: 0 раз
Размер: 1.44 GB
Оценка: 
(Голосов: 0)
Сказали спасибо: 0  Спасибо
Похожие темы
[Профиль]    [ЛС]
Показать сообщения:    
Ответить на тему

Текущее время: Сегодня 02:10

Часовой пояс: GMT + 7



Вы не можете начинать темы
Вы не можете отвечать на сообщения
Вы не можете редактировать свои сообщения
Вы не можете удалять свои сообщения
Вы не можете голосовать в опросах
Вы не можете прикреплять файлы к сообщениям
Вы можете скачивать файлы


Kaitlyn Black | lithiumS | Watch Movie