Встреча со злом при лунном свете / Ночная засада / Ill Met by Moonlight / Night Ambush (Майкл Пауэлл / Michael Powell, Эмерик Прессбургер / Emeric Pressburger) [1957, Великобритания, военный, боевик, DVDRip] + Sub Rus + Original Eng

Ответить на тему
Статистика раздачи [Обновить пиров]
Размер:  1.46 GB   |    Зарегистрирован:  16 дней   |    Скачан:  0 раз

Полного источника не было: Никогда

 
   
 
 
 
Автор Сообщение

chi5o.com

Создавать темы 07-Янв-2019 01:37

[Цитировать]

Встреча со злом при лунном свете / Ночная засада / Ill Met by Moonlight / Night Ambush
Страна: Великобритания
Жанр: военный, боевик
Год выхода: 1957
Продолжительность: 01:40:04
Перевод: Субтитры
Субтитры: русские - enoeno
Оригинальная аудиодорожка: английский
Режиссер: Майкл Пауэлл / Michael Powell, Эмерик Прессбургер / Emeric Pressburger
В ролях: Дирк Богард, Мариус Геринг, Дэвид Оксли, Дмитриус Андреас, Сирил Кьюсак, Лоуренс Пэйн, Вульф Моррис, Майкл Гоф, Джон Кэйрни, Брайан Уорт
Описание: Во время Второй мировой войны греческий средиземноморский остров Крит был оккупирован нацистами. Британские офицеры майор Патрик Ли Фермор (Дирк Богард) и капитан Билл Стэнли Мосс (Дэвид Оксли) из Управления специальных операций (SOE) высадились на острове. В апреле 1944 года с помощью местного критского сопротивления они должны были похитить генерала Крайпе (Мариус Геринг), командующего войсками вермахта.
Доп. информация: Сценарий снован на автобиографической книге У. Стэнли Мосса «Встреча со злом при лунном свете: похищение генерала Крайпе» (1950 г.). Рип и субтитры из сети. Перевод - enoeno
Сэмпл: http://sendfile.su/1466328
Качество видео: DVDRip
Формат файла: AVI
Видео: MPEG-4 Visual at 1 886 Kbps, 656 x 384 (1.708) at 25.000 fps
Аудио: AC-3 at 192 Kbps, 2 channels, 48.0 KHz
Формат файла субтитров: softsub (SRT)

Образец субтитров

14
00:02:55,400 --> 00:02:57,860
Этот дух товарищества проявился позже
и по отношению к бойцам знаменитого
15
00:02:58,160 --> 00:02:59,960
133 отделения специальных операций,
16
00:03:00,280 --> 00:03:02,600
укрывавшимся в горах,
планировавшим саботажи
17
00:03:02,640 --> 00:03:06,080
и передававшим сообщения
со своих секретных радиостанций.
18
00:03:06,840 --> 00:03:10,440
Как голодные волки, смотрели они
сверху на свою добычу ниже.
19
00:03:10,800 --> 00:03:13,680
И когда они спускались в долину,
20
00:03:13,720 --> 00:03:17,120
у немцев возникало много проблем.
21
00:03:33,840 --> 00:03:36,040
Это Филедем!
22
00:03:37,720 --> 00:03:40,200
Сюда, быстрее!
23
00:03:41,800 --> 00:03:44,200
Давай, быстрее!
24
00:03:46,000 --> 00:03:47,800
Здравствуйте!
25
00:03:48,400 --> 00:03:49,600
Садись!
26
00:04:43,680 --> 00:04:46,080
До свидания!
27
00:04:54,680 --> 00:04:57,120
КАФЕ
28
00:05:05,880 --> 00:05:08,960
- Два кофе.
- С сахаром?
29
00:05:10,880 --> 00:05:12,880
Два кофе!
30
00:05:23,480 --> 00:05:26,880
- Привет, Филедем.
- Привет, Микки.
31
00:05:30,800 --> 00:05:32,680
Кнос.
32
00:05:33,200 --> 00:05:35,600
Дворец царя Миноса.
33
00:05:37,200 --> 00:05:39,600
Хорошее укрытие.
34
00:05:44,200 --> 00:05:46,600
Вилла Ариадна.
35
00:06:06,920 --> 00:06:10,000
Добро пожаловать в Кнос.
Здесь много немцев.
36
00:06:10,360 --> 00:06:12,760
Командующий находится на вилле Ариадна.

MediaInfo

GeneralComplete name : H:\Ill_Met_By_Moonlight_1957\Ill_Met_By_Moonlight_1957.aviFormat : AVIFormat/Info : Audio Video InterleaveFile size : 1.46 GiBDuration : 1h 40mnOverall bit rate : 2 085 Kbps
VideoID : 0Format : MPEG-4 VisualFormat profile : Advanced Simple@L5Format settings, BVOP : 1Format settings, QPel : NoFormat settings, GMC : No warppointsFormat settings, Matrix : Default (H.263)Codec ID : XVIDCodec ID/Hint : XviDDuration : 1h 40mnBit rate : 1 886 KbpsWidth : 656 pixelsHeight : 384 pixelsDisplay aspect ratio : 1.708Frame rate : 25.000 fpsColor space : YUVChroma subsampling : 4:2:0Bit depth : 8 bitsScan type : ProgressiveCompression mode : LossyBits/(Pixel*Frame) : 0.299Stream size : 1.32 GiB (90%)Writing library : XviD 1.2.0SMP (UTC 2006-01-08)
AudioID : 1Format : AC-3Format/Info : Audio Coding 3Mode extension : CM (complete main)Format settings, Endianness : BigCodec ID : 2000Duration : 1h 40mnBit rate mode : ConstantBit rate : 192 KbpsChannel(s) : 2 channelsChannel positions : Front: L RSampling rate : 48.0 KHzBit depth : 16 bitsCompression mode : LossyStream size : 137 MiB (9%)Alignment : Split accross interleavesInterleave, duration : 80 ms (2.00 video frames)Interleave, preload duration : 500 ms

Скриншот c названием фильма

Скриншоты






[chi5o.com]_t_5670541.torrent
Торрент: Зарегистрирован ·  [ 2019-01-07 01:37 ] ·  899dd7b5b07d333869cf32aa29a5983def672431

15 KB

Статус: проверено
Скачан: 0 раз
Размер: 1.46 GB
Оценка: 
(Голосов: 0)
Сказали спасибо: 0  Спасибо
Похожие темы
[Профиль]    [ЛС]
Показать сообщения:    
Ответить на тему

Текущее время: Сегодня 02:28

Часовой пояс: GMT + 7



Вы не можете начинать темы
Вы не можете отвечать на сообщения
Вы не можете редактировать свои сообщения
Вы не можете удалять свои сообщения
Вы не можете голосовать в опросах
Вы не можете прикреплять файлы к сообщениям
Вы можете скачивать файлы


German Third Reich MH (6259 | └ Art, antiquités | تحميل APK