Пираты Карибского моря: Проклятие Чёрной жемчужины / Pirates of the Caribbean: The Curse of the Black Pearl (Гор Вербински / Gore Verbinski) [2003, США, фэнтези, боевик, приключения, WEBRip-AVC] [Open Matte] Dub + MVO (СТС) + Sub Rus + Original Eng

Ответить на тему
Статистика раздачи [Обновить пиров]
Размер:  2.92 GB   |    Зарегистрирован:  11 дней   |    Скачан:  0 раз

Полного источника не было: Никогда

 
   
 
 
 
Автор Сообщение

chi5o.com

Создавать темы 06-Янв-2019 23:28

[Цитировать]

Пираты Карибского моря: Проклятие Чёрной жемчужины / Pirates of the Caribbean: The Curse of the Black Pearl / Open Matte
Страна: США
Жанр: фэнтези, боевик, приключения
Год выхода: 2003
Продолжительность: 02:23:15
Перевод: Профессиональный (дублированный)
Перевод 2: Профессиональный (многоголосый закадровый) СТС
Субтитры: русские, английские
Оригинальная аудиодорожка: английский
Режиссер: Гор Вербински / Gore Verbinski
В ролях: Джонни Депп / Jack Sparrow, Джеффри Раш / Barbossa, Орландо Блум / Will Turner, Кира Найтли / Elizabeth Swann, Джек Девенпорт / Norrington, Кевин МакНэлли / Joshamee Gibbs, Джонатан Прайс / Governor Weatherby Swann, Ли Аренберг / Pintel, Макензи Крук / Ragetti, Дэвид Бэйли / Cotton
Описание: Карибское море, 17 век. Однажды ночью к острову Порт-Роял пристает корабль-призрак "Черная жемчужина" во главе с капитаном Барбоссой. По его приказу команда похищает прекрасную дочь губернатора Элизабет Свонн. Ведь именно ей принадлежит таинственный золотой медальон, способный снять с Барбоссы и его корсаров вековое проклятье, превратившее их в живых мертвецов. Друг детства Элизабет, молодой кузнец Уилл Тернер, и настоящий владелец "Черной жемчужины" капитан Джек Спэрроу отправляются в погоню за пиратами в надежде освободить девушку из плена...
Дополнительная информация: Источник: Torrentc рипа http://Torrentc/forum/viewtopic.php?t=5350829
Сэмпл: http://yadi.sk/i/qZDSNn8AF_qS4w
Качество видео: WEBRip-AVC
Формат файла: MKV
Видео: MPEG-4 AVC/H.264 / 2280 kbps / 1024x576 / 23.976 fps
Аудио: DUB (Rus) / AC3 / 2 ch / 192 kbps / 48 kHz
Аудио 2: MVO (Rus) / AC3 / 2 ch / 192 kbps / 48 kHz
Аудио 3: Original (Eng) / AAC / 6 ch / 256 kbps / 48 kHz
Формат файла субтитров: softsub (SRT)
Доп. информация о субтитрах: Русские (Full), Английские (Full)

MediaInfo

GeneralUniqueID : 179489741732859754502886283807712316975 (0x8708778242A3AAB1ADB8E05935378E2F)Complete name : D:\Пираты карибского моря. Проклятье черной жемчужины (2003) Open Matte.mkvFormat : MatroskaFile size : 2.92 GiBDuration : 2h 23mnOverall bit rate : 2 921 KbpsEncoded date : UTC 2019-01-05 14:51:22Writing application : mkvmerge v6.4.1 ('Omega Point') built on Sep 16 2013 22:05:10Writing library : libebml v1.3.0 + libmatroska v1.4.1
VideoID : 1Format : AVCFormat/Info : Advanced Video CodecFormat profile : High@L4.1Format settings, CABAC : YesFormat settings, ReFrames : 12 framesCodec ID : V_MPEG4/ISO/AVCDuration : 2h 23mnNominal bit rate : 2 280 KbpsWidth : 1 024 pixelsHeight : 576 pixelsDisplay aspect ratio : 16:9Frame rate : 23.976 fpsColor space : YUVChroma subsampling : 4:2:0Bit depth : 8 bitsScan type : ProgressiveBits/(Pixel*Frame) : 0.161Writing library : x264 core 152 r2851 ba24899Encoding settings : cabac=1 / ref=12 / deblock=1:-2:-2 / analyse=0x3:0x113 / me=umh / subme=10 / psy=1 / psy_rd=1.00:0.10 / mixed_ref=1 / me_range=32 / chroma_me=1 / trellis=2 / 8x8dct=1 / cqm=0 / deadzone=21,11 / fast_pskip=0 / chroma_qp_offset=-3 / threads=12 / lookahead_threads=2 / sliced_threads=0 / nr=0 / decimate=0 / interlaced=0 / bluray_compat=0 / constrained_intra=0 / bframes=9 / b_pyramid=2 / b_adapt=2 / b_bias=0 / direct=3 / weightb=1 / open_gop=0 / weightp=2 / keyint=240 / keyint_min=23 / scenecut=40 / intra_refresh=0 / rc=2pass / mbtree=0 / bitrate=2280 / ratetol=1.0 / qcomp=0.65 / qpmin=0 / qpmax=51 / qpstep=4 / cplxblur=20.0 / qblur=0.5 / ip_ratio=1.30 / pb_ratio=1.20 / aq=2:0.90Color primaries : BT.709-5, BT.1361, IEC 61966-2-4, SMPTE RP177Transfer characteristics : BT.709-5, BT.1361Matrix coefficients : BT.709-5, BT.1361, IEC 61966-2-4 709, SMPTE RP177
Audio #1ID : 2Format : AC-3Format/Info : Audio Coding 3Mode extension : CM (complete main)Codec ID : A_AC3Duration : 2h 23mnBit rate mode : ConstantBit rate : 192 KbpsChannel(s) : 2 channelsChannel positions : Front: L RSampling rate : 48.0 KHzBit depth : 16 bitsCompression mode : LossyStream size : 197 MiB (7%)Title : DUBLanguage : Russian
Audio #2ID : 3Format : AC-3Format/Info : Audio Coding 3Mode extension : CM (complete main)Codec ID : A_AC3Duration : 2h 23mnBit rate mode : ConstantBit rate : 192 KbpsChannel(s) : 2 channelsChannel positions : Front: L RSampling rate : 48.0 KHzBit depth : 16 bitsCompression mode : LossyStream size : 197 MiB (7%)Title : MVOLanguage : Russian
Audio #3ID : 4Format : AACFormat/Info : Advanced Audio CodecFormat version : Version 4Format profile : LCFormat settings, SBR : NoCodec ID : A_AACDuration : 2h 23mnChannel(s) : 6 channelsChannel positions : Front: L C R, Side: L R, LFESampling rate : 48.0 KHzCompression mode : LossyVideo delay : 5msTitle : ENGLanguage : English
Text #1ID : 5Format : UTF-8Codec ID : S_TEXT/UTF8Codec ID/Info : UTF-8 Plain TextLanguage : Russian
Text #2ID : 6Format : UTF-8Codec ID : S_TEXT/UTF8Codec ID/Info : UTF-8 Plain TextLanguage : English

Скриншот c названием фильма

Скриншоты

Источник: Torrentc

сравнения с BDRip




[chi5o.com]_t_5669913.torrent
Торрент: Зарегистрирован ·  [ 2019-01-06 23:27 ] ·  439db22091aaf6bdde046c07e28f93f723bb6b89

15 KB

Статус: проверено
Скачан: 0 раз
Размер: 2.92 GB
Оценка: 
(Голосов: 0)
Сказали спасибо: 0  Спасибо
Похожие темы
[Профиль]    [ЛС]
Показать сообщения:    
Ответить на тему

Текущее время: Сегодня 12:41

Часовой пояс: GMT + 7



Вы не можете начинать темы
Вы не можете отвечать на сообщения
Вы не можете редактировать свои сообщения
Вы не можете удалять свои сообщения
Вы не можете голосовать в опросах
Вы не можете прикреплять файлы к сообщениям
Вы можете скачивать файлы


Sweaters Cardigans | O Poderoso Chefão | Großhandel & Sonderposten