[TR24][OF] Emilie-Claire Barlow, Holly Cole, Polly Gibbons, Shirley Horn - Jazz Ballads, Vol. 2 - 2018 (Jazz, Vocal Jazz)

Ответить на тему
Статистика раздачи [Обновить пиров]
Размер:  2.41 GB   |    Зарегистрирован:  1 месяц 12 дней   |    Скачан:  1 раз

Полного источника не было: 21 день

 
   
 
 
 
Автор Сообщение

chi5o.com

Создавать темы 06-Янв-2019 23:27

[Цитировать]

Jazz Ballads, Vol. 2-- Формат файла записи/Источник записи: [TR24][OF]
Наличие водяных знаков: Нет
Год издания: 2018
Жанр: Jazz, Vocal Jazz
Издатель (лейбл): 2xHD
Продолжительность: 01:08:39
Наличие сканов в содержимом раздачи: Буклет PDF
Формат файла: FLAC (*.flac)
Тип рипа: tracks
Разрядность: 24/192
Формат файла: PCM
Количество каналов: 2.0
Источник (релизер): highresaudio.com-Треклист
01. Moon River (Diana Panton) (3:26)
02. Midnight Prayer (Polly Gibbons) (3:42)
03. Just for a Thrill (Shirley Horn) (4:58)
04. The Man I Love (Ben Webster) (5:33)
05. The Boy Next Door (Emilie-Claire Barlow) (5:18)
06. Lover Man (Robert Len) (3:21)
07. Te prometo (Amanda Martinez) (3:40)
08. Yesterday When I Was Young (Ginette Reno) (4:33)
09. Fly Me to the Moon (Diana Panton) (4:25)
10. I'm Beginning to See the Light (Holly Cole) (2:58)
11. Sack Full of Dreams (Polly Gibbons) (5:22)
12. Will You Love Me Tomorrow (Emilie-Claire Barlow) (3:44)
13. Good Morning Heartache (Robert Len) (3:39)
14. Everybody Loves Somebody (Holly Cole) (4:18)
15. Breaking Up Is Hard to Do (Emilie-Claire Barlow) (5:04)
16. Lover Man (Shirley Horn) (4:38)-

Лог проверки качества

foobar2000 1.4 / Dynamic Range Meter 1.1.1log date: 2019-01-06 17:47:02
--------------------------------------------------------------------------------Analyzed: Emilie-Claire Barlow, Holly Cole, Polly Gibbons, Shirley Horn / Jazz Ballads, Vol. 2--------------------------------------------------------------------------------
DR Peak RMS Duration Track--------------------------------------------------------------------------------DR11 -0.52 dB -15.11 dB 3:28 01-Moon RiverDR9 -3.33 dB -14.59 dB 3:43 02-Midnight PrayerDR12 -1.21 dB -18.26 dB 5:01 03-Just for a ThrillDR12 -0.31 dB -17.03 dB 5:33 04-The Man I LoveDR12 -2.15 dB -16.99 dB 5:18 05-The Boy Next DoorDR10 -1.47 dB -15.34 dB 3:21 06-Lover ManDR12 -1.67 dB -16.62 dB 3:40 07-Te prometoDR12 -1.05 dB -15.05 dB 4:33 08-Yesterday When I Was YoungDR11 -1.41 dB -15.71 dB 4:25 09-Fly Me to the MoonDR14 -1.22 dB -16.81 dB 2:58 10-I'm Beginning to See the LightDR9 -3.44 dB -15.06 dB 5:22 11-Sack Full of DreamsDR9 -3.28 dB -15.01 dB 3:44 12-Will You Love Me Tomorrow?DR11 -0.25 dB -14.69 dB 3:39 13-Good Morning HeartacheDR12 -2.43 dB -17.71 dB 4:18 14-Everybody Loves SomebodyDR9 -5.34 dB -16.15 dB 5:05 15-Breaking Up Is Hard to DoDR13 -0.53 dB -20.12 dB 4:40 16-Lover Man--------------------------------------------------------------------------------
Number of tracks: 16Official DR value: DR11Samplerate: 192000 HzChannels: 2Bits per sample: 24Bitrate: 4821 kbpsCodec: FLAC================================================================================

Об альбоме (сборнике)

Following the much appreciated Volume 1, this is another compilation from 2xHD’s artists interpreting a selection of great ballads.
Here is another selection of great ballads performed by 2xHD’s best female jazz singers and instrumentalists, a follow up to the much appreciated Jazz Ballads album released on 2xHD two years ago. It includes performances by Shirley Horn, Holly Cole, Ben Webster, and more.


[chi5o.com]_t_5670393.torrent
Торрент: Зарегистрирован ·  [ 2019-01-06 23:27 ] ·  c080f8c639f32b6d0681c0e6392c75d8b9bed97f

14 KB

Статус: проверено
Скачан: 1 раз
Размер: 2.41 GB
Оценка: 
(Голосов: 0)
Сказали спасибо: 0  Спасибо
Похожие темы
[Профиль]    [ЛС]
Показать сообщения:    
Ответить на тему

Текущее время: Сегодня 08:37

Часовой пояс: GMT + 7



Вы не можете начинать темы
Вы не можете отвечать на сообщения
Вы не можете редактировать свои сообщения
Вы не можете удалять свои сообщения
Вы не можете голосовать в опросах
Вы не можете прикреплять файлы к сообщениям
Вы можете скачивать файлы


The Rain | Wonders of the Solar System | Tubemate apk