Страшное желание убивать / Rage to Kill (Дэвид Уинтерс / David Winters) [1988, США, боевик, VHSRip] AVO (Павел Прямостанов)

Ответить на тему
Статистика раздачи [Обновить пиров]
Размер:  1.37 GB   |    Зарегистрирован:  17 дней   |    Скачан:  0 раз

Полного источника не было: Никогда

 
   
 
 
 
Автор Сообщение

chi5o.com

Создавать темы 05-Янв-2019 20:11

[Цитировать]

Страшное желание убивать / Rage to Kill
Страна: США
Жанр: боевик
Год выхода: 1988
Продолжительность: 01:32:59.
Перевод: Авторский (одноголосый закадровый) Павел Прямостанов
Субтитры: нет
Режиссер: Дэвид Уинтерс / David Winters
В ролях: Джеймс Райан, Оливер Рид, Кэмерон Митчелл, Генри Селе, Йен Юли, Максин Джон, Сидни Чама, Лайам Кандилл, Лайонел Ньютон, Мишель Кларк
Описание: У автогонщика Блейна Страйкера растет обеспокоенность по поводу своего младшего брата, студента медицинского вуза на Карибском острове Сент-Херон, где генерал Тернер путем военного переворота захватил власть и, возможно, планирует взорвать школу, чтобы обвинить в ее разрушении контрреволюционеров. Блейн Страйкер проникает на остров, но попадает в плен и подвергается пыткам электротоком. Но все же ему удается сбежать и объединиться с контрреволюционерами, и предотвратить коварные планы по сборке на острове российских ракет.
Доп. информация: За оцифровку VHS большое спасибо buyanoff.vladimir

Сэмпл: http://yadi.sk/i/y5jlrXiMvjYn9
Качество видео: VHSRip
Формат файла: AVI
Видео: 704x528 (1.33:1), 25 fps, XviD build 73 ~1899 kbps avg, 0.20 bit/pixel
Аудио: 48 kHz, AC3 Dolby Digital, 2/0 (L,R) ch, ~192 kbps

MediaInfo

Страшное желание убивать - Rage to Kill [by Edich2].avi
Format : AVI
Format/Info : Audio Video Interleave
File size : 1.37 GiB
Duration : 1 h 32 min
Overall bit rate : 2 102 kb/s
Movie name : Страшное желание убивать - Rage to Kill [by Edich2]
Director : by Edich2
Writing application : VirtualDubMod 1.5.10.3 | www.virtualdub-fr.org || (build 2550/release)
Comment : Torrentc
Video
ID : 0
Format : MPEG-4 Visual
Format profile : Advanced Simple@L5
Format settings, BVOP : 2
Format settings, QPel : No
Format settings, GMC : No warppoints
Format settings, Matrix : Custom
Codec ID : XVID
Codec ID/Hint : XviD
Duration : 1 h 32 min
Bit rate : 1 900 kb/s
Width : 704 pixels
Height : 528 pixels
Display aspect ratio : 4:3
Frame rate : 25.000 FPS
Color space : YUV
Chroma subsampling : 4:2:0
Bit depth : 8 bits
Scan type : Progressive
Compression mode : Lossy
Bits/(Pixel*Frame) : 0.204
Stream size : 1.23 GiB (90%)
Writing library : XviD 73
Audio
ID : 1
Format : AC-3
Format/Info : Audio Coding 3
Mode extension : CM (complete main)
Format settings, Endianness : Big
Codec ID : 2000
Duration : 1 h 32 min
Bit rate mode : Constant
Bit rate : 192 kb/s
Channel(s) : 2 channels
Channel positions : Front: L R
Sampling rate : 48.0 kHz
Frame rate : 31.250 FPS (1536 spf)
Compression mode : Lossy
Stream size : 128 MiB (9%)
Alignment : Split accross interleaves
Interleave, duration : 40 ms (1.00 video frame)
Interleave, preload duratio : 500 ms

Скриншоты




[chi5o.com]_t_5287785.torrent
Торрент: Зарегистрирован ·  [ 2019-01-05 20:11 ] ·  f60c49f1660da8f37b3a2e4a7e62d899d96c44e9

14 KB

Статус: проверено
Скачан: 0 раз
Размер: 1.37 GB
Оценка: 
(Голосов: 0)
Сказали спасибо: 0  Спасибо
Похожие темы
[Профиль]    [ЛС]
Показать сообщения:    
Ответить на тему

Текущее время: Сегодня 02:06

Часовой пояс: GMT + 7



Вы не можете начинать темы
Вы не можете отвечать на сообщения
Вы не можете редактировать свои сообщения
Вы не можете удалять свои сообщения
Вы не можете голосовать в опросах
Вы не можете прикреплять файлы к сообщениям
Вы можете скачивать файлы


Olivia Tennet | La maledizione della prima luna | Monata 2018 Anisa Rahma Permohonan