Каратели / Vigilante (Уильям Лустиг / William Lustig) [1983, США, боевик, драма, криминал, DVDRip] VO (allecs2010)

Ответить на тему
Статистика раздачи [Обновить пиров]
Размер:  814 MB   |    Зарегистрирован:  1 месяц 15 дней   |    Скачан:  0 раз

Полного источника не было: 10 часов

 
   
 
 
 
Автор Сообщение

chi5o.com

Создавать темы 05-Янв-2019 12:53

[Цитировать]

Каратели / Vigilante
Страна: США
Жанр: боевик, драма, криминал
Год выхода: 1983
Продолжительность: 01:29:27
-
Перевод: Одноголосый закадровый allecs2010 по субтитрам xo4uka4at6
Субтитры: нет
-
Режиссер: Уильям Лустиг / William Lustig
В ролях: Роберт Форстер, Фред Уильямсон, Ричард Брайт, Рутанья Алда, Дон Блэйкли, Джозеф Карберри, Уилли Колон, Джо Спинелл, Кэрол Линли, Вуди Строуд
-
Описание: После того как бандиты напали на жену и убили сына нью-йоркского рабочего Эдди Марино, он присоединяется к тайной незаконной группе карателей, состоящей из бывших полицейских. Они преследуют и убивают преступников, которым ранее неоднократно всё сходило с рук из-за попустительства суда.
-
Доп. информация: Видео http://Torrentc/forum/viewtopic.php?t=3812961
-
Сэмпл: http://sendfile.su/1465936
-
Качество видео: DVDRip
Формат файла: AVI
Видео: XviD build 50, 720x304 (2.37:1), 23.976 fps, 1134 kbps avg, 0.22 bit/pixel
Аудио: MPEG Layer 3, 48 kHz, 128.00 kbps avg, 2 ch

MediaInfo

C:\Users\ALEX\Desktop\Фильмы\Vigilante.1983.RUS.DVDRip.XviD.MPEG Audio.avi General Complete name : C:\Users\ALEX\Desktop\Фильмы\Vigilante.1983.RUS.DVDRip.XviD.MPEG Audio.avi Format : AVI Format/Info : Audio Video Interleave File size : 814 MiB Duration : 1h 29mn Overall bit rate : 1 272 Kbps Writing application : VirtualDubMod 1.5.10.2 (build 2542/release) Writing library : VirtualDubMod build 2542/release Video #0 ID : 0 Format : MPEG-4 Visual Format profile : Advanced Simple@L5 Format settings, BVOP : No Format settings, QPel : No Format settings, GMC : No warppoints Format settings, Matrix : Custom Codec ID : XVID Codec ID/Hint : XviD Duration : 1h 29mn Bit rate : 1 135 Kbps Width : 720 pixels Height : 304 pixels Display aspect ratio : 2.35:1 Frame rate : 23.976 fps Color space : YUV Chroma subsampling : 4:2:0 Bit depth : 8 bits Scan type : Progressive Compression mode : Lossy Bits/(Pixel*Frame) : 0.216 Stream size : 726 MiB (89%) Writing library : XviD 1.2.1 (UTC 2008-12-04) Audio #1 ID : 1 Format : MPEG Audio Format version : Version 1 Format profile : Layer 3 Codec ID : 55 Codec ID/Hint : MP3 Duration : 1h 29mn Bit rate mode : Constant Bit rate : 128 Kbps Channel(s) : 2 channels Sampling rate : 48.0 KHz Compression mode : Lossy Stream size : 81.9 MiB (10%) Alignment : Aligned on interleaves Interleave, duration : 42 ms (1.00 video frame) Interleave, preload duration : 504 ms Language : English

Скриншоты



[chi5o.com]_t_5669572.torrent
Торрент: Зарегистрирован ·  [ 2019-01-05 12:53 ] ·  240db3ed84f9690bd6abf31f90f5818383a80181

16 KB

Статус: проверено
Скачан: 0 раз
Размер: 814 MB
Оценка: 
(Голосов: 0)
Сказали спасибо: 0  Спасибо
Похожие темы
[Профиль]    [ЛС]
Показать сообщения:    
Ответить на тему

Текущее время: Сегодня 18:36

Часовой пояс: GMT + 7



Вы не можете начинать темы
Вы не можете отвечать на сообщения
Вы не можете редактировать свои сообщения
Вы не можете удалять свои сообщения
Вы не можете голосовать в опросах
Вы не можете прикреплять файлы к сообщениям
Вы можете скачивать файлы


Фудзиока Хироси | Judiciaire | Yellow Claw