Это случилось в праздник / Дюпон Лажуа / Dupont Lajoie (Ив Буассе / Yves Boisset) [1975, Франция, драма, Screener > DVD] [Советская прокатная копия] Dub (Мосфильм)

Ответить на тему
Статистика раздачи [Обновить пиров]
Размер:  3.42 GB   |    Зарегистрирован:  17 дней   |    Скачан:  1 раз

Полного источника не было: 3 дня

 
   
 
 
 
Автор Сообщение

chi5o.com

Создавать темы 05-Янв-2019 03:31

[Цитировать]

Это случилось в праздник / Дюпон Лажуа / Dupont Lajoie [Советская прокатная копия]- Страна: Франция
Жанр: драма
Год выхода: 1975
Продолжительность: 01:25:57-Перевод: Профессиональный (дублированный) - Киностудия "Мосфильм"
Субтитры: нет-Режиссер: Ив Буассе / Yves Boisset
В ролях: Жан Карме, Пино Карузо, Пьер Торнад, Жан Буиз, Мишель Пейрелон, Жинет Гарсен, Паскаль Роберт, Жан-Пьер Марьель, Робер Кастель, Изабель Юппер, Жак Шайё, Анри Гарсен, Одиль Пуассон, Виктор Лану, Мохамед Зинет, Поль Бонифа, Франсуа Каде, Пьер Колле, Жан-Жак Дельбо, Жан Лемэтр, Бернар Дюмейн, Бернар Фонтейн, Марсель Гассук, Карло Нелл, Жак Пребуа, Жак Рамад, Жан-Клод Ремолё, Жак Вильре- | : -Описание: Две семейные пары собираются отдохнуть вместе на лоне природы. Они останавливаются в загородном кемпинге. Одна из семейных пар имеет дочь, взрослую девушку Бриджит Колен. Совершенно случайно во время того, когда она загорала в камышах в уединенном месте, на нее наткнулся друг ее отца Жорж Лажуа. После небольшой прелюдии, он, потеряв голову, пытается взять ее силой, и во время борьбы, случайным ударом ломает ей шейные позвонки. Опомнившись, он пытается скрыть следы убийства и подбрасывает тело девушки к баракам алжирцев. Глава местных националистов подбивает жителей расправиться с алжирцем, на которого пало подозрение и его убивают, а Жорж Лажуа спокойно возвращается в Париж, где он имеет свой бар и благополучно забывает об это «неприятном» происшествии. Но однажды утром у него в баре появляется неприятный посетитель с ружьем — брат убитого алжирца...-Семпл: http://sendfile.su/1465831-Тип релиза: Screener
Формат файла: DVD-Video
Видео: 720x576 (4:3) @ 768x576, 25.000 fps, MPEG-2 Video, ~5323 Kbps, 0.513 bits/pixel
Аудио: Русский, 48.0 KHz, AC3, 2 ch, 256 Kbps

DVDInfo

Title: Это случилось в праздник 1975 Dub МосфильмSize: 3.42 Gb ( 3 581 252,00 KBytes ) - DVD-5Enabled regions: 1, 2, 3, 4, 5, 6, 7, 8
VTS_01 : Play Length: 01:25:57 Video: PAL 4:3 (720x576) VBR Audio: Russian, AC3, 2/0 (L,R) ch, 256 kbps, Delay 0 mSec

MediaInfo

GeneralComplete name : \Это случилось в праздник 1975 Dub Мосфильм\VIDEO_TS\VTS_01_1.VOBFormat : MPEG-PSFile size : 1 024 MiBDuration : 25 min 9 sOverall bit rate mode : VariableOverall bit rate : 5 692 kb/s
VideoID : 224 (0xE0)Format : MPEG VideoFormat version : Version 2Format profile : Main@MainFormat settings : BVOPFormat settings, BVOP : YesFormat settings, Matrix : DefaultFormat settings, GOP : M=3, N=13Format settings, picture structure : FrameDuration : 25 min 9 sBit rate mode : VariableBit rate : 5 323 kb/sMaximum bit rate : 9 600 kb/sWidth : 720 pixelsHeight : 576 pixelsDisplay aspect ratio : 4:3Frame rate : 25.000 FPSStandard : PALColor space : YUVChroma subsampling : 4:2:0Bit depth : 8 bitsScan type : InterlacedScan order : Top Field FirstCompression mode : LossyBits/(Pixel*Frame) : 0.513Time code of first frame : 00:00:00:00Time code source : Group of pictures headerStream size : 958 MiB (94%)Matrix coefficients : BT.601
AudioID : 189 (0xBD)-128 (0x80)Format : AC-3Format/Info : Audio Coding 3Commercial name : Dolby DigitalMuxing mode : DVD-VideoDuration : 25 min 8 sBit rate mode : ConstantBit rate : 256 kb/sChannel(s) : 2 channelsChannel layout : L RSampling rate : 48.0 kHzFrame rate : 31.250 FPS (1536 SPF)Bit depth : 16 bitsCompression mode : LossyStream size : 46.0 MiB (4%)Service kind : Complete Main
Menu


[chi5o.com]_t_5669412.torrent
Торрент: Зарегистрирован ·  [ 2019-01-05 03:31 ] ·  5e6bb59740a65bfa50cec0528af3dfe4f0a06ed8

18 KB

Статус: проверено
Скачан: 1 раз
Размер: 3.42 GB
Оценка: 
(Голосов: 0)
Сказали спасибо: 0  Спасибо
Похожие темы
[Профиль]    [ЛС]
Показать сообщения:    
Ответить на тему

Текущее время: Сегодня 02:32

Часовой пояс: GMT + 7



Вы не можете начинать темы
Вы не можете отвечать на сообщения
Вы не можете редактировать свои сообщения
Вы не можете удалять свои сообщения
Вы не можете голосовать в опросах
Вы не можете прикреплять файлы к сообщениям
Вы можете скачивать файлы


Apisit Opasaimlikit | Audiophile quality demo disk (FLAC) | Great Alaskan Railroad Journeys S01E01 480p x264-mSD [eztv]