Спящий лагерь 3: Безлюдная территория / Sleepaway Camp III: Teenage Wasteland (Майкл А. Симпсон / Michael A. Simpson) [1989, США, ужасы, триллер, слэшер, BDRip] MVO + AVO (Визгунов) + AVO (Кузнецов) + Sub Eng + Original Eng

Ответить на тему
Статистика раздачи [Обновить пиров]
Размер:  1.57 GB   |    Зарегистрирован:  18 дней   |    Скачан:  0 раз

Полного источника не было: Никогда

 
   
 
 
 
Автор Сообщение

chi5o.com

Создавать темы 04-Янв-2019 20:15

[Цитировать]

Спящий лагерь 3: Безлюдная территория / Sleepaway Camp III: Teenage Wasteland
Страна: США
Жанр: ужасы, триллер, слэшер
Год выхода: 1989
Продолжительность: 01:19:26
Перевод: Профессиональный (многоголосый закадровый) R5
Перевод: Авторский (одноголосый закадровый) - Сергей Визгунов
Перевод: Авторский (одноголосый закадровый) - Сергей Кузнецов
Субтитры: английские
Оригинальная аудиодорожка: английский

Режиссер: Майкл А. Симпсон / Michael A. Simpson
В ролях: Памела Спрингстин, Трэйси Гриффит, Майкл Дж. Поллард, Марк Оливер, Хэйнс Брук, Сандра Дорси, Дэрил Вилчер, Ким Уолл, Кайл Холман, Клифф Брэнд
Описание: Летний лагерь Роллинг Хиллз переименовали, потому что у жителей всей округи возникали только кошмарные ассоциации при упоминании этого названия. Теперь лагерь получил вывеску «Новые горизонты».
Анджела Бэйкер, убивавшая подростков в предыдущих двух частях фильма тоже «переименовалась«: теперь ее зовут Мария Накастро. Потому что именно так звали девочку, которую Анджела убила, чтобы отправиться в лагерь «Новые горизонты», где ее кровавая натура сможет развернуться во всю...

Сэмпл
Качество видео: BDRip
Формат файла: AVI
Видео: 704x384 (1.83:1), 23.976 fps, XviD build 73 ~2036 kbps avg, 0.31 bit/pixel
Аудио: 48 kHz, AC3 Dolby Digital, 2/0 (L,R) ch, ~192 kbps - многоголосый
Аудио: 48 kHz, AC3 Dolby Digital, 2/0 (L,R) ch, ~192 kbps - Визгунов
Аудио: 48 kHz, AC3 Dolby Digital, 2/0 (L,R) ch, ~192 kbps - Кузнецов
Аудио: 48 kHz, AC3 Dolby Digital, 2/0 (L,R) ch, ~192 kbps - оригинал (отдельным файлом)
Формат файла субтитров: softsub (SRT)

Источник: Torrentc

http://Torrentc/forum/viewtopic.php?t=3195127

MediaInfo

GeneralComplete name : H:\Sleepaway.Camp.III_Teenage.Wasteland.1989.bdrip_[1.46]_[teko]\Sleepaway.Camp.III_Teenage.Wasteland.1989.bdrip_[1.46].aviFormat : AVIFormat/Info : Audio Video InterleaveFile size : 1.46 GiBDuration : 1h 19mnOverall bit rate : 2 633 KbpsWriting application : VirtualDubMod 1.5.10.3 | www.virtualdub-fr.org || (build 2550/release)Writing library : VirtualDubMod build 2550/release
VideoID : 0Format : MPEG-4 VisualFormat profile : Advanced Simple@L5Format settings, BVOP : 2Format settings, QPel : NoFormat settings, GMC : No warppointsFormat settings, Matrix : CustomCodec ID : XVIDCodec ID/Hint : XviDDuration : 1h 19mnBit rate : 2 038 KbpsWidth : 704 pixelsHeight : 384 pixelsDisplay aspect ratio : 1.85:1Frame rate : 23.976 (23976/1000) fpsColor space : YUVChroma subsampling : 4:2:0Bit depth : 8 bitsScan type : ProgressiveCompression mode : LossyBits/(Pixel*Frame) : 0.314Stream size : 1.13 GiB (77%)Writing library : XviD 73
Audio #1ID : 1Format : AC-3Format/Info : Audio Coding 3Mode extension : CM (complete main)Format settings, Endianness : BigCodec ID : 2000Duration : 1h 19mnBit rate mode : ConstantBit rate : 192 KbpsChannel(s) : 2 channelsChannel positions : Front: L RSampling rate : 48.0 KHzFrame rate : 31.250 fps (1536 spf)Compression mode : LossyStream size : 109 MiB (7%)Alignment : Split accross interleavesInterleave, duration : 42 ms (1.00 video frame)Interleave, preload duratio : 500 ms
Audio #2ID : 2Format : AC-3Format/Info : Audio Coding 3Mode extension : CM (complete main)Format settings, Endianness : BigCodec ID : 2000Duration : 1h 19mnBit rate mode : ConstantBit rate : 192 KbpsChannel(s) : 2 channelsChannel positions : Front: L RSampling rate : 48.0 KHzFrame rate : 31.250 fps (1536 spf)Compression mode : LossyStream size : 109 MiB (7%)Alignment : Split accross interleavesInterleave, duration : 42 ms (1.00 video frame)Interleave, preload duratio : 500 ms
Audio #3ID : 3Format : AC-3Format/Info : Audio Coding 3Mode extension : CM (complete main)Format settings, Endianness : BigCodec ID : 2000Duration : 1h 19mnBit rate mode : ConstantBit rate : 192 KbpsChannel(s) : 2 channelsChannel positions : Front: L RSampling rate : 48.0 KHzFrame rate : 31.250 fps (1536 spf)Compression mode : LossyStream size : 109 MiB (7%)Alignment : Split accross interleavesInterleave, duration : 42 ms (1.00 video frame)Interleave, preload duratio : 500 ms

Скриншоты

:--


[chi5o.com]_t_5669311.torrent
Торрент: Зарегистрирован ·  [ 2019-01-04 20:15 ] ·  f010ab04601fb29514ce8c5d0086ce3d00bbcfcd

16 KB

Статус: проверено
Скачан: 0 раз
Размер: 1.57 GB
Оценка: 
(Голосов: 0)
Сказали спасибо: 0  Спасибо
Похожие темы
[Профиль]    [ЛС]
Показать сообщения:    
Ответить на тему

Текущее время: Сегодня 02:04

Часовой пояс: GMT + 7



Вы не можете начинать темы
Вы не можете отвечать на сообщения
Вы не можете редактировать свои сообщения
Вы не можете удалять свои сообщения
Вы не можете голосовать в опросах
Вы не можете прикреплять файлы к сообщениям
Вы можете скачивать файлы


Episode 7 season 04 episode 07 | dorukhan | 1983 HDTV