У холмов есть глаза 2 / The Hills Have Eyes Part II (Уэс Крэйвен / Wes Craven) [1985, США, Великобритания, триллер, ужасы, DVDRip] AVO (Юрий Товбин) + VO (Неизвестный)

Ответить на тему
Статистика раздачи [Обновить пиров]
Размер:  1.46 GB   |    Зарегистрирован:  18 дней   |    Скачан:  0 раз

Полного источника не было: Никогда

 
   
 
 
 
Автор Сообщение

chi5o.com

Создавать темы 04-Янв-2019 17:08

[Цитировать]

У холмов есть глаза 2 / The Hills Have Eyes Part II
Страна: США, Великобритания
Жанр: триллер, ужасы
Год выхода: 1985
Продолжительность: 01:26:24
Перевод: Авторский (одноголосый закадровый) Юрий Товбин
Перевод 2: Одноголосый закадровый Неизвестный
Субтитры: нет
Режиссер: Уэс Крэйвен / Wes Craven
В ролях: Тамара Стэффорд, Кевин Спиртас, Джон Блум, Коллин Райли, Майкл Берриман, Пенни Джонсон, Янус Блайт, Джон Лофлин, Дэвид Николс
Описание: Юный Бобби Картер, оставшийся в живых после кошмаров в пустыне, не может забыть ужасов пережитого. Он изобрел формулу супербензина и решил испытать его с друзьями из местного клуба мотоциклистов перед предстоящими гонками. Руби, хорошая девчонка, также оставшаяся в живых, имеет глупость подбить ребят "срезать" маршрут через пустыню. Далее все идет по схеме - одни за другими симпатичные гонщики и гонщицы попадают в лапы оставшихся в живых мутантов-каннибалов....
Доп. информация: Выражаю огромную благодарность Нордеру, за синхронизацию дороги с Юрием Товбиным.
Сэмпл: http://multi-up.com/1219278
Качество видео: DVDRip (Источник: Torrentc - DVD5)
Формат файла: AVI
Видео: XviD 73, 624x480, (4:3), 23,976 fps, 1959 Кбит/с, 8 бит, 0.27 bit/pixel
Аудио: Русский (АС3, 2 ch (Front: L R), 48,0 KHz, 224 Kbps) Юрий Товбин
Аудио 2: Русский (АС3, 2 ch (Front: L R), 48,0 KHz, 224 Kbps) Неизвестный

MediaInfo

ОбщееПолное имя : H:\Фильмы на трекер\У холмов есть глаза - II (ужасы, триллер 1985 год).aviФормат файла : AVIФормат файла/Информация : Audio Video InterleaveРазмер файла : 1,46 ГбайтПродолжительность : 1 ч. 26 м.Общий поток : 2421 Кбит/секПрограмма кодирования : VirtualDubMod 1.5.10.3 | www.virtualdub-fr.org || (build 2550/release)Библиотека кодирования : VirtualDubMod build 2550/release
ВидеоИдентификатор : 0Формат файла : MPEG-4 VisualПрофиль формата : Advanced Simple@L5Параметр BVOP формата : 2Параметр QPel формата : НетПараметр GMC формата : Без точки переходаПараметр матрицы формата : ВыборочнаяИдентификатор кодека : XVIDИдентификатор кодека/Подсказка : XviDПродолжительность : 1 ч. 26 м.Битрейт : 1959 Кбит/секШирина : 624 пикселяВысота : 480 пикселейСоотношение сторон : 4:3Частота кадров : 23,976 (24000/1001) кадра/секЦветовое пространство : YUVСубдискретизация насыщенности : 4:2:0Битовая глубина : 8 битТип развёртки : ПрогрессивнаяМетод сжатия : С потерямиБит/(Пиксели*Кадры) : 0.273Размер потока : 1,18 Гбайт (81%)Библиотека кодирования : XviD 73
Аудио #1Идентификатор : 1Формат файла : AC-3Формат файла/Информация : Audio Coding 3Расширение режима : CM (complete main)Параметр Endianness формата : BigИдентификатор кодека : 2000Продолжительность : 1 ч. 26 м.Вид битрейта : ПостоянныйБитрейт : 224 Кбит/секКаналы : 2 каналаРасположение каналов : Front: L RЧастота : 48,0 КГцЧастота кадров : 31,250 кадров/сек (1536 spf)Метод сжатия : С потерямиРазмер потока : 139 Мбайт (9%)Выравнивание : Разделение по промежуткамПродолжительность промежутка : 42 мс. (1,00 видеокадр)Время предзагрузки промежутка : 500 мс.
Аудио #2Идентификатор : 2Формат файла : AC-3Формат файла/Информация : Audio Coding 3Расширение режима : CM (complete main)Параметр Endianness формата : BigИдентификатор кодека : 2000Продолжительность : 1 ч. 26 м.Вид битрейта : ПостоянныйБитрейт : 224 Кбит/секКаналы : 2 каналаРасположение каналов : Front: L RЧастота : 48,0 КГцЧастота кадров : 31,250 кадров/сек (1536 spf)Метод сжатия : С потерямиРазмер потока : 139 Мбайт (9%)Выравнивание : Разделение по промежуткамПродолжительность промежутка : 42 мс. (1,00 видеокадр)Время предзагрузки промежутка : 500 мс.

Скриншот c названием фильма

Скриншоты



[chi5o.com]_t_5668743.torrent
Торрент: Зарегистрирован ·  [ 2019-01-04 17:08 ] ·  a143b6a513aeb09546527205c6fa9bfb169011dc

15 KB

Статус: проверено
Скачан: 0 раз
Размер: 1.46 GB
Оценка: 
(Голосов: 0)
Сказали спасибо: 0  Спасибо
Похожие темы
[Профиль]    [ЛС]
Показать сообщения:    
Ответить на тему

Текущее время: Сегодня 02:07

Часовой пояс: GMT + 7



Вы не можете начинать темы
Вы не можете отвечать на сообщения
Вы не можете редактировать свои сообщения
Вы не можете удалять свои сообщения
Вы не можете голосовать в опросах
Вы не можете прикреплять файлы к сообщениям
Вы можете скачивать файлы


Сборник - Хит-парады Топы Чарты FM-станций: Europa+, DFM, Record, Energy, Love Radio, Русское Радио. Сентябрь (2016) MP3 | Tripod Mount Adapter + Long Thumb Knob Screw Bolt For GoPro Hero7 6 5 4 3+ | ILLY X2.1 5499 ,00 zł