Пугала / Straszydła (Роман Хущо / Roman Huszczo) [1983 (1984), Польша, мультфильм, детский, VHSRip-AVC] [Советская прокатная копия] Dub (Довженко)

Ответить на тему
Статистика раздачи [Обновить пиров]
Размер:  1.84 GB   |    Зарегистрирован:  16 дней   |    Скачан:  0 раз

Полного источника не было: Никогда

 
   
 
 
 
Автор Сообщение

chi5o.com

Создавать темы 04-Янв-2019 10:42

[Цитировать]

Пугала / Straszydła [Советская прокатная копия]- Страна: Польша
Жанр: мультфильм, детский
Год выхода: 1983 (1984)
Продолжительность: 00:59:39-Перевод: Профессиональный (дублированный) - Киностудия им. А. Довженко
Субтитры: нет-Режиссер: Роман Хущо / Roman Huszczo- | : -Описание: Журналист Эгон Рысь разъезжает по стране в поисах темы для "сенсационного" репортажа и встречает пугало, спешащее на слёт нечисти. Нечисть собирается в старом замке и решает открыть кооператив под управлением Вельзевула.-Доп. информация: Оцифровку VHS выполнил [url=profile.php?mode=viewprofile&u=13397966]Nekontroliruemij_devil[/url].-Семпл: http://sendfile.su/1438078-Тип релиза: VHSRip-AVC
Формат файла: MKV
Видео: 694x568 (1.30:1) @ 740x568, 25.000 fps, AVC, ~4214 Kbps, 0.428 bits/pixel
Аудио: Русский, 48.0 KHz, AC3, 1 ch, 192 Kbps

MediaInfo

GeneralUnique ID : 146522119596573917094132132278500821462 (0x6E3B223E65CDFE32D0CE286E9A3F89D6)Complete name : Пугала 1983 Польша Dub Довженко.mkvFormat : MatroskaFormat version : Version 4 / Version 2File size : 1.84 GiBDuration : 59 min 39 sOverall bit rate : 4 408 kb/sEncoded date : UTC 2018-08-19 17:15:08Writing application : mkvmerge v25.0.0 ('Prog Noir') 64-bitWriting library : libebml v1.3.6 + libmatroska v1.4.9
VideoID : 1Format : AVCFormat/Info : Advanced Video CodecFormat profile : High@L4.1Format settings : CABAC / 16 Ref FramesFormat settings, CABAC : YesFormat settings, RefFrames : 16 framesCodec ID : V_MPEG4/ISO/AVCDuration : 59 min 39 sBit rate : 4 214 kb/sWidth : 694 pixelsHeight : 568 pixelsDisplay aspect ratio : 4:3Frame rate mode : ConstantFrame rate : 25.000 FPSColor space : YUVChroma subsampling : 4:2:0Bit depth : 8 bitsScan type : ProgressiveBits/(Pixel*Frame) : 0.428Stream size : 1.76 GiB (96%)Writing library : x264 core 152 r2851kMod ba24899Encoding settings : cabac=1 / ref=16 / deblock=1:-3:-3 / analyse=0x3:0x133 / me=umh / subme=11 / psy=1 / fade_compensate=0.00 / psy_rd=1.00:0.00 / mixed_ref=1 / me_range=48 / chroma_me=1 / trellis=2 / 8x8dct=1 / cqm=0 / deadzone=21,11 / fast_pskip=0 / chroma_qp_offset=-2 / threads=12 / lookahead_threads=3 / sliced_threads=0 / nr=0 / decimate=1 / interlaced=0 / bluray_compat=0 / constrained_intra=0 / bframes=16 / b_pyramid=2 / b_adapt=2 / b_bias=0 / direct=3 / weightb=1 / open_gop=0 / weightp=0 / keyint=250 / keyint_min=25 / scenecut=40 / intra_refresh=0 / rc_lookahead=70 / rc=crf / mbtree=0 / crf=17.0000 / qcomp=0.60 / qpmin=0 / qpmax=69 / qpstep=4 / vbv_maxrate=50000 / vbv_bufsize=62500 / crf_max=0.0 / nal_hrd=none / filler=0 / ip_ratio=1.40 / pb_ratio=1.30 / aq=3:0.75Language : RussianDefault : YesForced : NoColor range : LimitedColor primaries : BT.601 PALTransfer characteristics : BT.470 System B/GMatrix coefficients : BT.470 System B/G
AudioID : 2Format : AC-3Format/Info : Audio Coding 3Codec ID : A_AC3Duration : 59 min 39 sBit rate mode : ConstantBit rate : 192 kb/sChannel(s) : 1 channelChannel positions : Front: CSampling rate : 48.0 kHzFrame rate : 31.250 FPS (1536 SPF)Bit depth : 16 bitsCompression mode : LossyStream size : 81.9 MiB (4%)Title : Дубляж | Студия им. Александра ДовженкоLanguage : RussianService kind : Complete MainDefault : YesForced : No


[chi5o.com]_t_5378218.torrent
Торрент: Зарегистрирован ·  [ 2019-01-04 10:29 ] ·  b0562e530c66148d7bec9b02a372df651b991daf

19 KB

Статус: проверено
Скачан: 0 раз
Размер: 1.84 GB
Оценка: 
(Голосов: 0)
Сказали спасибо: 0  Спасибо
Похожие темы
[Профиль]    [ЛС]
Показать сообщения:    
Ответить на тему

Текущее время: Сегодня 20:09

Часовой пояс: GMT + 7



Вы не можете начинать темы
Вы не можете отвечать на сообщения
Вы не можете редактировать свои сообщения
Вы не можете удалять свои сообщения
Вы не можете голосовать в опросах
Вы не можете прикреплять файлы к сообщениям
Вы можете скачивать файлы


Surviving Escobar - Alias J.J. - Season 01 | ZhykRecords... | Sam Page