Футурама: Игра Бендера / Futurama: Bender\'s Game (Дуэйн Кэри-Хилл / Dwayne Carey-Hill) [2008, США, Мультфильм, фантастика, фэнтези, боевик, комедия, приключения, BDRip-AVC] DVO + Original Eng + Sub (rus, eng)

Ответить на тему
Статистика раздачи [Обновить пиров]
Размер:  1.48 GB   |    Зарегистрирован:  16 дней   |    Скачан:  0 раз

Полного источника не было: Никогда

 
   
 
 
 
Автор Сообщение

chi5o.com

Создавать темы 04-Янв-2019 10:41

[Цитировать]

-Футурама: Игра Бендера
Futurama: Bender's Game
- Страна: США
Жанр: Мультфильм, фантастика, фэнтези, боевик, комедия, приключения
Год выхода: 2008
Продолжительность: 01:27:34-Перевод: Профессиональный (двухголосый закадровый)
Субтитры: русские (Full), английские (Full + Комментарии)
Оригинальная аудиодорожка: английский-Режиссер: Дуэйн Кэри-Хилл / Dwayne Carey-Hill-В ролях: Билли Уэст, Кэти Сагал, Джон Ди Маджио, Тресс МакНилл, Морис ЛаМарш, Фил ЛаМарр, Лорен Том, Дэвид Херман, Кэт Суси, Фрэнк Уэлкер-Описание: Когда цены на топливо взлетают до небес, команда Планеты Экспресс отправляется в новое опасное путешествие к единственному на свете источнику темной материи — топливу для всех космических кораблей. Но глубоко под землей наши герои попадают в очень необычное место… средневековую страну!!! с драконами, магами и «обдолбанными» рыцарями, которые подозрительно похожи на Бендера. Припаркуйте свой автомобиль, оседлайте единорога и приготовьтесь к захватывающему зрелищу…-Доп. информация:
- Перевод с DVD сборника, впервые на трекере.-Рейтинги и возраст:

-Сэмпл: http://yadi.sk/i/T1IAXJdfOai28w-Качество видео: BDRip-AVC (BDRemux 1080p)
Формат файла: MKV
Видео кодек: H.264 / MPEG-4 AVC
Аудио кодек: AC3 / Dolby Digital
Видео: 1152x648 (16:9), 23.976 fps, ~1590 kbps, 0.089 bit/pixel
Аудио #1: 48 kHz, 2 channels (dual mono), ~192 kbps | DVO
Аудио #2: 48 kHz, 6 channels (5.1), ~448 kbps | Original Eng
Аудио #3: 48 kHz, 2 channels (stereo), ~192 kbps | Комментарии Eng
Формат файла субтитров: softsub (SRT), вшиты в контейнер-

MediaInfo / LogLog QP (I, P, B frame) 2 pass

raw [info]: 1152x648p 1:1 @ 24000/1001 fps (cfr)
x264 [info]: using SAR=1/1
x264 [info]: using cpu capabilities: MMX2 SSE2Fast SSSE3 SSE4.2 LZCNT BMI1 BMI2
x264 [info]: profile High, level 4.1
x264 [info]: frame I:1228 Avg QP:10.17 size:171864
x264 [info]: frame P:33344 Avg QP:15.90 size: 15591
x264 [info]: frame B:91405 Avg QP:15.61 size: 3432

MediaInfo

ОбщееУникальный идентификатор : 240322694694676327440615596211868270218 (0xB4CC77A7B6409E65BFC9693CE3BBFE8A)Полное имя : E:\Download\Futurama.Bender's Game.2008.BDRip-AVC.DVO.mkvФормат файла : MatroskaВерсия формата : Version 4 / Version 2Размер файла : 1,48 ГбайтПродолжительность : 1 ч. 27 м.Общий поток : 2424 Кбит/секДата кодирования : UTC 2018-12-08 22:56:16Программа кодирования : mkvmerge v7.4.0 ('Circles') 64bit built on Dec 12 2014 12:19:56Библиотека кодирования : libebml v1.3.0 + libmatroska v1.4.1
ВидеоИдентификатор : 1Формат файла : AVCФормат файла/Информация : Advanced Video CodecПрофиль формата : High@L4.1Параметр CABAC формата : ДаПараметр ReFrames формата : 11 кадровИдентификатор кодека : V_MPEG4/ISO/AVCПродолжительность : 1 ч. 27 м.Битрейт : 1590 Кбит/секШирина : 1152 пикселяВысота : 648 пикселейСоотношение сторон : 16:9Режим частоты кадров : ПостоянныйЧастота кадров : 23,976 (24000/1001) кадра/секЦветовое пространство : YUVСубдискретизация насыщенности : 4:2:0Битовая глубина : 8 битТип развёртки : ПрогрессивнаяБит/(Пиксели*Кадры) : 0.089Размер потока : 996 Мбайт (66%)Библиотека кодирования : x264 core 130 r2273 b3065e6Настройки программы : cabac=1 / ref=11 / deblock=1:-3:-3 / analyse=0x3:0x113 / me=umh / subme=11 / psy=1 / psy_rd=1.00:0.00 / mixed_ref=1 / me_range=48 / chroma_me=1 / trellis=2 / 8x8dct=1 / cqm=0 / deadzone=21,11 / fast_pskip=0 / chroma_qp_offset=-2 / threads=6 / lookahead_threads=1 / sliced_threads=0 / nr=0 / decimate=0 / interlaced=0 / bluray_compat=0 / constrained_intra=0 / bframes=12 / b_pyramid=2 / b_adapt=2 / b_bias=0 / direct=3 / weightb=1 / open_gop=0 / weightp=2 / keyint=250 / keyint_min=23 / scenecut=40 / intra_refresh=0 / rc=2pass / mbtree=0 / bitrate=1590 / ratetol=1.0 / qcomp=0.60 / qpmin=0 / qpmax=69 / qpstep=4 / cplxblur=20.0 / qblur=0.5 / ip_ratio=1.40 / pb_ratio=1.30 / aq=1:1.00Default : ДаForced : Нет
Аудио #1Идентификатор : 2Формат файла : AC-3Формат файла/Информация : Audio Coding 3Расширение режима : CM (complete main)Параметр Endianness формата : BigИдентификатор кодека : A_AC3Продолжительность : 1 ч. 27 м.Вид битрейта : ПостоянныйБитрейт : 192 Кбит/секКаналы : 2 каналаРасположение каналов : Front: L RЧастота : 48,0 КГцЧастота кадров : 31,250 кадров/сек (1536 spf)Метод сжатия : С потерямиРазмер потока : 120 Мбайт (8%)Заголовок : DVO (с DVD сборника)Язык : RussianDefault : ДаForced : Нет
Аудио #2Идентификатор : 3Формат файла : AC-3Формат файла/Информация : Audio Coding 3Расширение режима : CM (complete main)Параметр Endianness формата : BigИдентификатор кодека : A_AC3Продолжительность : 1 ч. 27 м.Вид битрейта : ПостоянныйБитрейт : 448 Кбит/секКаналы : 6 каналовРасположение каналов : Front: L C R, Side: L R, LFEЧастота : 48,0 КГцЧастота кадров : 31,250 кадров/сек (1536 spf)Метод сжатия : С потерямиРазмер потока : 280 Мбайт (18%)Заголовок : Original EngЯзык : EnglishDefault : НетForced : Нет
Аудио #3Идентификатор : 4Формат файла : AC-3Формат файла/Информация : Audio Coding 3Расширение режима : CM (complete main)Параметр Endianness формата : BigИдентификатор кодека : A_AC3Продолжительность : 1 ч. 27 м.Вид битрейта : ПостоянныйБитрейт : 192 Кбит/секКаналы : 2 каналаРасположение каналов : Front: L RЧастота : 48,0 КГцЧастота кадров : 31,250 кадров/сек (1536 spf)Метод сжатия : С потерямиРазмер потока : 120 Мбайт (8%)Заголовок : КомментарииЯзык : EnglishDefault : НетForced : Нет
Текст #1Идентификатор : 5Формат файла : UTF-8Идентификатор кодека : S_TEXT/UTF8Идентификатор кодека/Информация : UTF-8 Plain TextПродолжительность : 1 ч. 26 м.Битрейт : 113 бит/секCount of elements : 1220Размер потока : 72,1 Кбайт (0%)Заголовок : Rus SubЯзык : RussianDefault : НетForced : Нет
Текст #2Идентификатор : 6Формат файла : UTF-8Идентификатор кодека : S_TEXT/UTF8Идентификатор кодека/Информация : UTF-8 Plain TextПродолжительность : 1 ч. 25 м.Битрейт : 70 бит/секCount of elements : 1177Размер потока : 44,2 Кбайт (0%)Заголовок : Eng SubЯзык : EnglishDefault : НетForced : Нет
Текст #3Идентификатор : 7Формат файла : UTF-8Идентификатор кодека : S_TEXT/UTF8Идентификатор кодека/Информация : UTF-8 Plain TextПродолжительность : 1 ч. 27 м.Битрейт : 125 бит/секCount of elements : 1739Размер потока : 80,6 Кбайт (0%)Заголовок : Eng Sub (комментарии)Язык : EnglishDefault : НетForced : Нет


[chi5o.com]_t_5656761.torrent
Торрент: Зарегистрирован ·  [ 2019-01-04 10:29 ] ·  bd15c2a56200bee5d9238ce92c2811d579c88661

15 KB

Статус: проверено
Скачан: 0 раз
Размер: 1.48 GB
Оценка: 
(Голосов: 0)
Сказали спасибо: 0  Спасибо
Похожие темы
[Профиль]    [ЛС]
Показать сообщения:    
Ответить на тему

Текущее время: Сегодня 20:42

Часовой пояс: GMT + 7



Вы не можете начинать темы
Вы не можете отвечать на сообщения
Вы не можете редактировать свои сообщения
Вы не можете удалять свои сообщения
Вы не можете голосовать в опросах
Вы не можете прикреплять файлы к сообщениям
Вы можете скачивать файлы


Winx Club. Вокруг света №1-5 (NouName.ru) (ENG) [L] Подробнее... Залито: 01-02-2011 13:59 (5659 просмотров) Winx Club. Вокруг света №1-5 (NouName.ru) (ENG) [L] Для самых маленьких Пазлы для детей Winx Club. Вокруг света v0.5 - детские пазлы в ярком и весёлом стиле.... Раздают: 0 Качают: 0 Размер: 2MB | Cappelli e berretti | Full Strike