Смолфут / Smallfoot (Кэри Киркпатрик / Karey Kirkpatrick, Джейсон Рейсиг / Jason Reisig) [2018, США, мультфильм, мюзикл, фэнтези, комедия, приключения, семейный, BDRip] Dub

Ответить на тему
Статистика раздачи [Обновить пиров]
Размер:  1.46 GB   |    Зарегистрирован:  16 дней   |    Скачан:  0 раз

Полного источника не было: Никогда

 
   
 
 
 
Автор Сообщение

chi5o.com

Создавать темы 04-Янв-2019 10:41

[Цитировать]

Смолфут / Smallfoot- Год выхода: 2018
Выпущено: США / Warner Bros. Pictures
Жанр: мультфильм, мюзикл, фэнтези, комедия, приключения, семейный
Продолжительность: 01:36:17
Перевод: Профессиональный (полное дублирование)
Субтитры: Русские (форсированные) (внешние *.srt)-Режиссер:
Кэри Киркпатрик / Karey Kirkpatrick, Джейсон Рейсиг / Jason Reisig-В ролях:
Ченнинг Татум (Migo), Джеймс Корден (Percy), Зендея (Meechee), Коммон (Stonekeeper), Леброн Джеймс (Gwangi), Дэнни ДеВито (Dorgle), Джина Родригез (Kolka), Яра Шахиди (Brenda), Эли Генри (Fleem), Джимми Татро (Thorp)-О фильме:
Молодой находчивый йети сталкивается с тем, кого, по его глубокому убеждению, не существует — человеком. Новости о «смолфуте» приносят ему славу и шанс завоевать девушку его мечты. А ещё — вызывают переполох среди простых йети, которые теперь гадают, кто же ещё обитает в большом мире за пределами их маленькой заснеженной деревушки.-
| | IMDB | КиноПоиск | Сэмпл |-Качество: BDRip [Smallfoot.2018.BluRay.1080p.AVC.DTS-HD.MA5.1-CHDBits]
Формат файла: AVI
Видео: 720x304 (2.37:1), 23.976 fps, XviD build 67 ~1772 kbps avg, 0.34 bit/pixel
Аудио: 48 kHz, AC3 Dolby Digital, 3/2 (L,C,R,l,r) + LFE ch, ~384 kbps avg - iTunes Russia-
- MediaInfo">

Скриншоты - MediaInfo

Общее
Полное имя                               : D:\Smallfoot_2018_BDRip_by_Dalemake.avi
Формат файла                                   : AVI
Формат файла/Информация                        : Audio Video Interleave
Размер файла                             : 1,46 Гбайт
Продолжительность                        : 1 ч. 36 м.
Общий поток                              : 2166 Кбит/сек
Программа кодирования                    : VirtualDubMod 1.5.10.3 | www.virtualdub-fr.org || (build 2550/release)
Библиотека кодирования                   : VirtualDubMod build 2550/release
Видео
Идентификатор                            : 0
Формат файла                                   : MPEG-4 Visual
Профиль формата                          : Advanced Simple@L5
Параметр BVOP формата                    : 1
Параметр QPel формата                    : Нет
Параметр GMC формата                     : Без точки перехода
Параметр матрицы формата                 : Выборочная
Идентификатор кодека                     : XVID
Идентификатор кодека/Подсказка           : XviD
Продолжительность                        : 1 ч. 36 м.
Битрейт                                  : 1772 Кбит/сек
Ширина                                   : 720 пикселей
Высота                                   : 304 пикселя
Соотношение сторон                       : 2,35:1
Частота кадров                           : 23,976 кадра/сек
Цветовое пространство                    : YUV
Субдискретизация насыщенности            : 4:2:0
Битовая глубина                          : 8 бит
Тип развёртки                            : Прогрессивная
Метод сжатия                             : С потерями
Бит/(Пиксели*Кадры)                      : 0.338
Размер потока                            : 1,19 Гбайт (82%)
Библиотека кодирования                   : XviD 67
Аудио
Идентификатор                            : 1
Формат файла                                   : AC-3
Формат файла/Информация                        : Audio Coding 3
Расширение режима                        : CM (complete main)
Параметр Endianness формата              : Big
Идентификатор кодека                     : 2000
Продолжительность                        : 1 ч. 36 м.
Вид битрейта                             : Постоянный
Битрейт                                  : 384 Кбит/сек
Каналы                                   : 6 каналов
Расположение каналов                     : Front: L C R, Side: L R, LFE
Частота                                  : 48,0 КГц
Битовая глубина                          : 16 бит
Метод сжатия                             : С потерями
Размер потока                            : 264 Мбайт (18%)
Выравнивание                             : Разделение по промежуткам
Продолжительность промежутка             : 42  мс. (1,00 видеокадр)
Время предзагрузки промежутка            : 500  мс.
-


[chi5o.com]_t_5662499.torrent
Торрент: Зарегистрирован ·  [ 2019-01-04 10:29 ] ·  3aa573cfc2779ce1606e5910572373f51b981c29

15 KB

Статус: проверено
Скачан: 0 раз
Размер: 1.46 GB
Оценка: 
(Голосов: 0)
Сказали спасибо: 0  Спасибо
Похожие темы
[Профиль]    [ЛС]
Показать сообщения:    
Ответить на тему

Текущее время: Сегодня 20:24

Часовой пояс: GMT + 7



Вы не можете начинать темы
Вы не можете отвечать на сообщения
Вы не можете редактировать свои сообщения
Вы не можете удалять свои сообщения
Вы не можете голосовать в опросах
Вы не можете прикреплять файлы к сообщениям
Вы можете скачивать файлы


Herramientas de bricolaje | Dominion 1. Sezon | Suite...