Тетушка Хильда! / Тетя Хильда / Tante Hilda! (Жак-Реми Жирер / Jacques-Remy Girerd, Бенуа Шьё / Benoit Chieux) [2013, Франция, Люксембург, комедия, семейный, анимация, DVB] Original (Fra) + Sub (Rus, Eng, Fra, Deu)

Ответить на тему
Статистика раздачи [Обновить пиров]
Размер:  1.97 GB   |    Зарегистрирован:  16 дней   |    Скачан:  0 раз

Полного источника не было: Никогда

 
   
 
 
 
Автор Сообщение

chi5o.com

Создавать темы 04-Янв-2019 10:41

[Цитировать]

Тетушка Хильда!
Tante Hilda!- Страна: Франция, Люксембург
Жанр: комедия, семейный, анимация
Год выхода: 2013
Продолжительность: 01:25:39
Перевод: Субтитры (русский перевод И.Рыбкиной, ECLAIR)
Субтитры: русские, английские, французские, французские-телетекст, немецкие, нидерландские, румынские, испанские
Оригинальная аудиодорожка: французский
Режиссер: Жак-Реми Жирер / Jacques-Rémy Girerd, Бенуа Шьё / Benoît Chieux
Роли озвучивают: Сабин Азема / Sabine Azéma (Tante Hilda), Жозиан Баласко / Josiane Balasko (Dolorès), Франсуа Морель / François Morel (Ike), Брюно Лоше / Bruno Lochet (Turner)
Описание: Тетушка Хильда, большая любительница природы, содержит целый зеленый музей — в огромной теплице у нее растут тысячи и тысячи растений со всех уголков мира. А в исследовательской лаборатории местной корпорации тем временем выводят новую зерновую культуру Аттилем. Она не требует воды, не нуждается в удобрениях и дает обильный урожай. Настолько обильный, что вскоре этот гибрид грозит заполонить мир и уничтожить все остальные растения, включая оранжерею тетушки Хильды.
Доп. информация: Hot Bird (13.0°E) TV5MONDE Europe DVB-S
Награды: номинация на приз "Хрустальный медведь" - лучший художественный фильм конкурса для юношества "Поколение 14+" Berlin International Film Festival 2014; приз зрительских симпатий Festival Graines des toiles de Gerardmer 2013; приз "Золотая звезда" за лучший женский голос озвучания (Sabine Azema) Festival Voix d'Etoiles de Port Leucate, France 2013; приз за лучший полнометражный фильм для детей возраста 12+ Carrousel international du film de Rimouski, Canada 2014; приз за лучший полнометражный фильм MONSTRA, Festival du film d'animation de Lisbonne, Portugal 2014; Гран-при за лучший полнометражный анимационный фильм Festival FICAM (Meknes), Maroc 2014; приз за лучший фильм Festival de Cinema pour Enfants de Quebec, Canada 2015.

Качество видео: DVB
Формат файла: MKV
Видео: MPEG Video 2, 720x576@1024x576 (16:9), 25 fps, ~3042 kbps avg, 0.293 bit/pixel
Аудио: MPEG Audio 2, 2 ch, 48 kHz, 192 kbps - французский
Формат файла субтитров: softsub (SRT)

Пример субтитров

100:00:54,212 --> 00:00:55,941Продолжайте.
200:00:55,941 --> 00:00:57,782Медленно.
300:00:57,782 --> 00:01:00,487Очень медленно.
400:01:00,487 --> 00:01:03,458Мы приближаемся к точке 2.
500:01:03,458 --> 00:01:08,083Передвиньте зонд на 1 градус.
600:01:08,336 --> 00:01:10,932-Так?-Да, отлично.
700:01:10,932 --> 00:01:13,662А теперь перемещайте его
800:01:13,662 --> 00:01:16,412к саженцу ОМГ.
900:01:16,814 --> 00:01:18,939Тихонько.
1000:01:19,695 --> 00:01:22,445Еще медленнее.
1100:01:47,139 --> 00:01:51,011Замечательно! Прекрасно!
1200:01:51,011 --> 00:01:52,295Подойдите, Жулио.
1300:01:52,295 --> 00:01:54,060Посмотрите.
1400:01:54,060 --> 00:01:56,777Профессор, получилось!
1500:01:56,777 --> 00:01:58,902Смотрите.
1600:01:59,454 --> 00:02:01,139Точка 2!
1700:02:01,139 --> 00:02:03,139Точка 2.
1800:02:05,011 --> 00:02:10,011Мы ее нашли!Мы нашли точку 21!
1900:02:10,376 --> 00:02:12,223Точка 2!
2000:02:12,223 --> 00:02:14,223Точка 2!

MediaInfo

GeneralUnique ID : 48502214917563746168496182900844844399 (0x247D2FD2A438F9EB4CCC576A5F5AD56F)Complete name : [apreder]Tante_Hilda(2013)DVB.mkvFormat : MatroskaFormat version : Version 2File size : 1.97 GiBDuration : 1 h 25 minOverall bit rate mode : VariableOverall bit rate : 3 299 kb/sMovie name : Tante Hilda!Released date : 2013-00-00Encoded date : UTC 2018-12-27 14:17:40Writing application : mkvmerge v29.0.0 ('Like It Or Not') 64-bitWriting library : libebml v1.3.6 + libmatroska v1.4.9Cover : YesAttachments : cover.jpg / small_cover.jpgACTOR : Sabine Azуma, Josiane Balasko, Franсois MorelDIRECTOR : Benoit Chieux, Jacques-Rуmy GirerdGENRE : Animation, Comedy, FamilyIMDB : tt1671584KEYWORDS : TorrentcLAW_RATING : 12+
VideoID : 1Format : MPEG VideoFormat version : Version 2Format profile : Main@MainFormat settings : CustomMatrix / BVOPFormat settings, BVOP : YesFormat settings, Matrix : CustomFormat settings, GOP : VariableFormat settings, picture structure : FrameCodec ID : V_MPEG2Codec ID/Info : MPEG 1 or 2 VideoDuration : 1 h 25 minBit rate mode : VariableBit rate : 3 042 kb/sMaximum bit rate : 15.0 Mb/sWidth : 720 pixelsHeight : 576 pixelsDisplay aspect ratio : 16:9Active Format Description : Letterbox 16:9 imageFrame rate mode : ConstantFrame rate : 25.000 FPSStandard : PALColor space : YUVChroma subsampling : 4:2:0Bit depth : 8 bitsScan type : InterlacedScan order : Top Field FirstCompression mode : LossyBits/(Pixel*Frame) : 0.293Stream size : 1.82 GiB (92%)Default : YesForced : No
AudioID : 2Format : MPEG AudioFormat version : Version 1Format profile : Layer 2Format settings : Joint stereo / Intensity Stereo + MS StereoCodec ID : A_MPEG/L2Codec ID/Hint : MP2Duration : 1 h 25 minBit rate mode : ConstantBit rate : 192 kb/sChannel(s) : 2 channelsSampling rate : 48.0 kHzCompression mode : LossyStream size : 118 MiB (6%)Language : FrenchDefault : YesForced : No
Text #1ID : 3Format : UTF-8Codec ID : S_TEXT/UTF8Codec ID/Info : UTF-8 Plain TextLanguage : RussianDefault : NoForced : No
Text #2ID : 4Format : UTF-8Codec ID : S_TEXT/UTF8Codec ID/Info : UTF-8 Plain TextLanguage : EnglishDefault : NoForced : No
Text #3ID : 5Format : UTF-8Codec ID : S_TEXT/UTF8Codec ID/Info : UTF-8 Plain TextLanguage : FrenchDefault : NoForced : No
Text #4ID : 6Format : UTF-8Codec ID : S_TEXT/UTF8Codec ID/Info : UTF-8 Plain TextTitle : TeletexteLanguage : FrenchDefault : NoForced : No
Text #5ID : 7Format : UTF-8Codec ID : S_TEXT/UTF8Codec ID/Info : UTF-8 Plain TextLanguage : GermanDefault : NoForced : No
Text #6ID : 8Format : UTF-8Codec ID : S_TEXT/UTF8Codec ID/Info : UTF-8 Plain TextLanguage : DutchDefault : NoForced : No
Text #7ID : 9Format : UTF-8Codec ID : S_TEXT/UTF8Codec ID/Info : UTF-8 Plain TextLanguage : romDefault : NoForced : No
Text #8ID : 10Format : UTF-8Codec ID : S_TEXT/UTF8Codec ID/Info : UTF-8 Plain TextLanguage : SpanishDefault : NoForced : No

Скриншот c названием фильма

Скриншоты


Резервные скриншоты


- [4'436]


[chi5o.com]_t_5665745.torrent
Торрент: Зарегистрирован ·  [ 2019-01-04 10:29 ] ·  c74961c484c1bbba6c343778da6f8794ee2e764d

20 KB

Статус: проверено
Скачан: 0 раз
Размер: 1.97 GB
Оценка: 
(Голосов: 0)
Сказали спасибо: 0  Спасибо
Похожие темы
[Профиль]    [ЛС]
Показать сообщения:    
Ответить на тему

Текущее время: Сегодня 21:05

Часовой пояс: GMT + 7



Вы не можете начинать темы
Вы не можете отвечать на сообщения
Вы не можете редактировать свои сообщения
Вы не можете удалять свои сообщения
Вы не можете голосовать в опросах
Вы не можете прикреплять файлы к сообщениям
Вы можете скачивать файлы


Paul Chun | Garasu No Kantai ... | Balo học sinh Miti BL1009ML