Зловещие мертвецы 2 / Демоны 2 / Evil Dead II (Сэм Рэйми / Sam Raimi) [1987, США, ужасы, триллер, HDRip] VO (Неизвестный - VHS)

Ответить на тему
Статистика раздачи [Обновить пиров]
Размер:  1.46 GB   |    Зарегистрирован:  19 дней   |    Скачан:  0 раз

Полного источника не было: Никогда

 
   
 
 
 
Автор Сообщение

chi5o.com

Создавать темы 03-Янв-2019 23:12

[Цитировать]

Зловещие мертвецы 2 / Демоны 2 / Evil Dead II
Страна: США
Жанр: ужасы, триллер
Год выхода: 1987
Продолжительность: 01:24:39
Перевод: Одноголосый закадровый Неизвестный - VHS
Субтитры: нет
Режиссер: Сэм Рэйми / Sam Raimi
В ролях: Брюс Кэмпбелл, Сара Берри, Дэн Хикс, Кэсси ДеПайва, Тед Рейми, Дениз Бикслер, Ричард Домайер, Джон Пикс, Лу Хэнкок
Описание: Главный герой кинокартины молодой человек по имени Эш, с течением времени вынужден снова вернуться в ужасную хижину в лесу. Также в позднее время ночи, в эту хижину прибывают еще гости. Среди которых дочь владельца хижины, легендарного ученого археолога, по имени Энни Ноуби, а также ее трое приятелей. Энни объединяет свои усилия с Эшем, чтобы раз и навсегда уничтожить кандарийских демонов. Однако попытки избавится от сил зла, были пустыми. Единственным выходом из сложившейся ситуации является уничтожение книги под названием Некрономикон. Именно она своим заклинанием вызвала силы зла, и уничтожить ее не так-то просто. Для этого ребятам необходимо будет открыть временной портал. Удастся ли героям фильма справиться с поставленной задачей...?
Доп. информация: Выражаю огромную благодарность Нордеру, за синхронизацию звуковой дороги. За дорогу благодарим 21Sepsis

Сэмпл: http://multi-up.com/1219311
Качество видео: НDRip (Источник: Torrentc BDRip 1080p)
Формат файла: AVI
Видео: XviD 73, 720x384, (1,85:1), 23,976 fps, 2248 Кбит/с, 8 бит
Аудио: Русский (АС3, 2 ch (Front: L R), 48,0 KHz, 224 Kbps)

MediaInfo

ОбщееПолное имя : H:\Фильмы на трекер\Зловещие мертвецы 2 (ужасы, триллер 1987 год).aviФормат файла : AVIФормат файла/Информация : Audio Video InterleaveРазмер файла : 1,46 ГбайтПродолжительность : 1 ч. 24 м.Общий поток : 2481 Кбит/секПрограмма кодирования : VirtualDubMod 1.5.10.3 | www.virtualdub-fr.org || (build 2550/release)Библиотека кодирования : VirtualDubMod build 2550/release
ВидеоИдентификатор : 0Формат файла : MPEG-4 VisualПрофиль формата : Advanced Simple@L5Параметр BVOP формата : 2Параметр QPel формата : НетПараметр GMC формата : Без точки переходаПараметр матрицы формата : ВыборочнаяИдентификатор кодека : XVIDИдентификатор кодека/Подсказка : XviDПродолжительность : 1 ч. 24 м.Битрейт : 2248 Кбит/секШирина : 720 пикселейВысота : 384 пикселяСоотношение сторон : 1,85:1Частота кадров : 23,976 (23976/1000) кадра/секЦветовое пространство : YUVСубдискретизация насыщенности : 4:2:0Битовая глубина : 8 битТип развёртки : ПрогрессивнаяМетод сжатия : С потерямиБит/(Пиксели*Кадры) : 0.339Размер потока : 1,32 Гбайт (91%)Библиотека кодирования : XviD 73
АудиоИдентификатор : 1Формат файла : AC-3Формат файла/Информация : Audio Coding 3Расширение режима : CM (complete main)Параметр Endianness формата : BigИдентификатор кодека : 2000Продолжительность : 1 ч. 24 м.Вид битрейта : ПостоянныйБитрейт : 224 Кбит/секКаналы : 2 каналаРасположение каналов : Front: L RЧастота : 48,0 КГцЧастота кадров : 31,250 кадров/сек (1536 spf)Метод сжатия : С потерямиРазмер потока : 135 Мбайт (9%)Выравнивание : Разделение по промежуткамПродолжительность промежутка : 42 мс. (1,00 видеокадр)Время предзагрузки промежутка : 500 мс.

Скриншот c названием фильма

Скриншоты



[chi5o.com]_t_5668888.torrent
Торрент: Зарегистрирован ·  [ 2019-01-03 23:12 ] ·  98c274b033380154c2d84355774dc7b1979e5e5b

15 KB

Статус: проверено
Скачан: 0 раз
Размер: 1.46 GB
Оценка: 
(Голосов: 0)
Сказали спасибо: 0  Спасибо
Похожие темы
[Профиль]    [ЛС]
Показать сообщения:    
Ответить на тему

Текущее время: Сегодня 02:05

Часовой пояс: GMT + 7



Вы не можете начинать темы
Вы не можете отвечать на сообщения
Вы не можете редактировать свои сообщения
Вы не можете удалять свои сообщения
Вы не можете голосовать в опросах
Вы не можете прикреплять файлы к сообщениям
Вы можете скачивать файлы


Virtual & Crypto Collectables | Divinas (Divines) 2016 | 히블히블 35-37