Такова жизнь! / Это жизнь! / That\'s Life! (Блейк Эдвардс / Blake Edwards) [1986, США, Драма, комедия, HDRip-AVC] DVO (НТВ+) + Sub Eng + Original Eng

Ответить на тему
Статистика раздачи [Обновить пиров]
Размер:  1.46 GB   |    Зарегистрирован:  19 дней   |    Скачан:  0 раз

Полного источника не было: Никогда

 
   
 
 
 
Автор Сообщение

chi5o.com

Создавать темы 03-Янв-2019 21:08

[Цитировать]

Такова жизнь! / Это жизнь! / That's Life!
Жанр: Драма, комедия
Страна: США
Студия: Blake Edwards, Delphi V Productions, Paradise Cove Productions, Ubilam Productions
Год выхода: 1986
Продолжительность: 01:42:00
Перевод: Профессиональный (двухголосый закадровый) - НТВ+
Субтитры: английские
Оригинальная аудиодорожка: английский
Режиссер: Блейк Эдвардс / Blake Edwards
В ролях:
Джек Леммон / Jack Lemmon ... Harvey Fairchild
Джули Эндрюс / Julie Andrews ... Gillian Fairchild
Сэлли Келлермен / Sally Kellerman ... Holly Parrish
Роберт Лоджа / Robert Loggia ... Father Baragone
Дженнифер Эдвардс / Jennifer Edwards ... Megan Fairchild Bartlet
Роберт Неппер / Robert Knepper ... Steve Larwin
Мэтт Латтанци / Matt Lattanzi ... Larry Bartlet
Крис Леммон / Chris Lemmon ... Josh Fairchild
Синтия Сайкс / Cynthia Sikes ... Janice Kern
Дэна Спаркс / Dana Sparks ... Fanny Ward
Эмма Уолтон / Emma Walton Hamilton ... Kate Fairchild
Фелиция Фарр / Felicia Farr ... Madame Carrie
Тедди Уилсон / Teddy Wilson ... Corey
Никки Блэр / Nicky Blair ... Andre
Джордан Кристофер / Jordan Christopher ... Dr. Keith Romanis
Бифф Эллиот / Biff Elliot ... Belmont
Описание: Харви справляет свое шестидесятилетие и переживает кризис — он не может смириться со старостью. Его жена ждет результатов анализов по подозрению на рак. К тому же, они ужасно устали от своих взрослых детей, взбалмошных соседей и местного священника-алкоголика …
Дополнительная информация:

Источник: Torrentc от Dreven (http://Torrentc/forum/viewtopic.php?t=5652491).
pmv
Большое спасибо за:
- русскую аудиодорожку - Dreven
IMDb = 6,1/10 (1108) - http://www.imdb.com/title/tt0092079/
Кинопоиск = 6.397 (135) - http://www.kinopoisk.ru/film/4693/
ВНИМАНИЕ!!! РИП ФОРМАТА mkv (кодек H.264) ВОСПРОИЗВОДИТСЯ НЕ НА ВСЕХ БЫТОВЫХ ВИДЕОПЛЕЕРАХ!!!
ПРОСЬБА к СКАЧАВШИМ. НЕ УХОДИТЕ С РАЗДАЧИ, ПОМОГИТЕ ДРУГИМ СКАЧАТЬ!!!
Качество видео: HDRip-AVC
Формат файла: MKV
Видео: AVC (H264), 1152@1555x648 (2.40:1), 23.976 fps, 1660 kbps, 0.093 Bits/Pixel
Аудио #1: AC3, 48 KHz, stereo (2 ch), 192 kbps – русский DVO
Аудио #2: AC3, 48 KHz, stereo (2 ch), 192 kbps – английский

MediaInfo

General
Unique ID : 189518051218414789598257502232180347138 (0x8E93D95709C06B25846CD6494AB2D102)
Complete name : D:\torrents\That's Life! (1986, rus_MVO+eng+eng_sub).mkv
Format : Matroska
Format version : Version 4 / Version 2
File size : 1.46 GiB
Duration : 1 h 42 min
Overall bit rate : 2 046 kb/s
Encoded date : UTC 2018-12-10 16:02:25
Writing application : mkvmerge v29.0.0 ('Like It Or Not') 64-bit
Writing library : libebml v1.3.6 + libmatroska v1.4.9
Video
ID : 1
Format : AVC
Format/Info : Advanced Video Codec
Format profile : High@L4.1
Format settings, CABAC : Yes
Format settings, RefFrames : 11 frames
Codec ID : V_MPEG4/ISO/AVC
Duration : 1 h 42 min
Bit rate : 1 660 kb/s
Width : 1 152 pixels
Height : 648 pixels
Display aspect ratio : 2.40:1
Original display aspect ratio : 16:9
Frame rate mode : Constant
Frame rate : 23.976 (23976/1000) FPS
Original frame rate : 23.976 (24000/1001) FPS
Color space : YUV
Chroma subsampling : 4:2:0
Bit depth : 8 bits
Scan type : Progressive
Bits/(Pixel*Frame) : 0.093
Stream size : 1.18 GiB (81%)
Writing library : x264 core 146 r2538 121396c
Encoding settings : cabac=1 / ref=11 / deblock=1:0:0 / analyse=0x3:0x133 / me=umh / subme=10 / psy=1 / psy_rd=1.00:0.00 / mixed_ref=1 / me_range=24 / chroma_me=1 / trellis=2 / 8x8dct=1 / cqm=0 / deadzone=21,11 / fast_pskip=1 / chroma_qp_offset=-2 / threads=48 / lookahead_threads=5 / sliced_threads=0 / nr=0 / decimate=1 / interlaced=0 / bluray_compat=0 / constrained_intra=0 / bframes=8 / b_pyramid=2 / b_adapt=2 / b_bias=0 / direct=3 / weightb=1 / open_gop=0 / weightp=2 / keyint=250 / keyint_min=23 / scenecut=40 / intra_refresh=0 / rc_lookahead=60 / rc=2pass / mbtree=1 / bitrate=1660 / ratetol=1.0 / qcomp=0.60 / qpmin=0 / qpmax=69 / qpstep=4 / cplxblur=20.0 / qblur=0.5 / ip_ratio=1.40 / aq=1:1.00
Language : English
Default : Yes
Forced : No
Audio #1
ID : 2
Format : AC-3
Format/Info : Audio Coding 3
Format settings, Endianness : Big
Codec ID : A_AC3
Duration : 1 h 42 min
Bit rate mode : Constant
Bit rate : 192 kb/s
Channel(s) : 2 channels
Channel positions : Front: L R
Sampling rate : 48.0 kHz
Frame rate : 31.250 FPS (1536 SPF)
Bit depth : 16 bits
Compression mode : Lossy
Stream size : 140 MiB (9%)
Language : Russian
Service kind : Complete Main
Default : Yes
Forced : No
Audio #2
ID : 3
Format : AC-3
Format/Info : Audio Coding 3
Format settings, Endianness : Big
Codec ID : A_AC3
Duration : 1 h 42 min
Bit rate mode : Constant
Bit rate : 192 kb/s
Channel(s) : 2 channels
Channel positions : Front: L R
Sampling rate : 48.0 kHz
Frame rate : 31.250 FPS (1536 SPF)
Bit depth : 16 bits
Compression mode : Lossy
Stream size : 140 MiB (9%)
Language : English
Service kind : Complete Main
Default : No
Forced : No
Text
ID : 4
Format : UTF-8
Codec ID : S_TEXT/UTF8
Codec ID/Info : UTF-8 Plain Text
Duration : 1 h 41 min
Bit rate : 93 b/s
Count of elements : 1754
Stream size : 69.9 KiB (0%)
Language : English
Default : No
Forced : No

Скриншот c названием фильма

МОИ РАЗДАЧИ НА трекере: [url=tracker.php?rid=27390064]http://Torrentc/forum/tracker.php?rid=27390064[/url]


[chi5o.com]_t_5668804.torrent
Торрент: Зарегистрирован ·  [ 2019-01-03 21:08 ] ·  80cd26c4d81ca64e1ee89eac21417317dd9f2457

15 KB

Статус: проверено
Скачан: 0 раз
Размер: 1.46 GB
Оценка: 
(Голосов: 0)
Сказали спасибо: 0  Спасибо
Похожие темы
[Профиль]    [ЛС]
Показать сообщения:    
Ответить на тему

Текущее время: Сегодня 02:06

Часовой пояс: GMT + 7



Вы не можете начинать темы
Вы не можете отвечать на сообщения
Вы не можете редактировать свои сообщения
Вы не можете удалять свои сообщения
Вы не можете голосовать в опросах
Вы не можете прикреплять файлы к сообщениям
Вы можете скачивать файлы


Lifjord - Der Freispruch | Power Protection, Distribution | Lançamentos