Поправьте фокус! / Zaostrit, prosím! (Мартин Фрич / Martin Frič) [1956, Чехословакия, комедия, Screener > DVD] [Советская прокатная копия] Dub (Горького)

Ответить на тему
Статистика раздачи [Обновить пиров]
Размер:  4.31 GB   |    Зарегистрирован:  20 дней   |    Скачан:  0 раз

Полного источника не было: Никогда

 
   
 
 
 
Автор Сообщение

chi5o.com

Создавать темы 03-Янв-2019 00:46

[Цитировать]

Поправьте фокус! / Zaostrit, prosím! [Советская прокатная копия]- Страна: Чехословакия
Жанр: комедия
Год выхода: 1956
Продолжительность: 01:19:01-Перевод: Профессиональный (дублированный) - Киностудия им. М. Горького
Субтитры: нет-Режиссер: Мартин Фрич / Martin Frič
В ролях: Иржи Марек, Ладислав Пешек, Иозеф Кемр, Зденка Балдова, Милош Недбал, Любомир Липский, Ян Пивец, Франтишек Вноучек, Густав Геверле, Власта Буриан, Властимил Бродский, Франтишек Филиповски...- | : -Описание: Герои фильма: неумный карьерист Пржегришле, беспринципный критик Пошагал и на все соглашающийся бухгалтер Мацек — это решенные в гротесковой манере собирательные образы чинуш, подхалимов и приспособленцев. За трескучими фразами об общественном благе эти бездельники скрывают свое ничтожество, мешают развиваться всему живому, новому и полезному.
Поправьте фокус! Дайте размытому изображению подобного деятеля принять четкие, конкретные формы — и с него моментально упадет маска, он предстанет перед зрителями во всем «блеске» своего ничтожества.
Один, два, десять планов, снятых с разных точек, в самое неожиданное для тех, за кем следует объектив киноаппарата, время, — и зрителям ясно: от таких людей нужно избавляться. И чем быстрое это произойдет, тем лучше.-Семпл: http://sendfile.su/1465400-Тип релиза: Screener
Формат файла: DVD-Video
Видео: PAL 720x576 (4:3) @ 768x576, 25.000 fps, MPEG-2 Video, ~7300 Kbps, 0.704 bits/pixel
Аудио: Русский, 48.0 KHz, AC3, 2 ch, 384 Kbps

DVDInfo

Title: Поправьте фокус 1956 Dub ГорькогоSize: 4.31 Gb ( 4 523 084,00 KBytes ) - DVD-5Enabled regions: 1, 2, 3, 4, 5, 6, 7, 8
VTS_01 : Play Length: 01:19:01 Video: PAL 4:3 (720x576) VBR Audio: Russian, AC3, 2/0 (L,R) ch, 384 kbps, Delay 0 mSec

MediaInfo

GeneralComplete name : \Поправьте фокус 1956 Dub Горького\VIDEO_TS\VTS_01_1.VOBFormat : MPEG-PSFile size : 1 024 MiBDuration : 18 min 19 sOverall bit rate mode : VariableOverall bit rate : 7 814 kb/s
VideoID : 224 (0xE0)Format : MPEG VideoFormat version : Version 2Format profile : Main@MainFormat settings : CustomMatrix / BVOPFormat settings, BVOP : YesFormat settings, Matrix : CustomFormat settings, GOP : M=3, N=15Format settings, picture structure : FrameDuration : 18 min 19 sBit rate mode : VariableBit rate : 7 300 kb/sWidth : 720 pixelsHeight : 576 pixelsDisplay aspect ratio : 4:3Frame rate : 25.000 FPSStandard : PALColor space : YUVChroma subsampling : 4:2:0Bit depth : 8 bitsScan type : InterlacedScan order : Top Field FirstCompression mode : LossyBits/(Pixel*Frame) : 0.704Time code of first frame : 00:00:00:00Time code source : Group of pictures headerGOP, Open/Closed : OpenGOP, Open/Closed of first frame : ClosedStream size : 953 MiB (93%)
AudioID : 189 (0xBD)-128 (0x80)Format : AC-3Format/Info : Audio Coding 3Commercial name : Dolby DigitalMuxing mode : DVD-VideoDuration : 18 min 18 sBit rate mode : ConstantBit rate : 384 kb/sChannel(s) : 2 channelsChannel layout : L RSampling rate : 48.0 kHzFrame rate : 31.250 FPS (1536 SPF)Bit depth : 16 bitsCompression mode : LossyStream size : 50.3 MiB (5%)Service kind : Complete Main
Menu


[chi5o.com]_t_5668387.torrent
Торрент: Зарегистрирован ·  [ 2019-01-03 00:46 ] ·  8c900d72bebb1f3c8271bdbb63e7fd7479b1c264

23 KB

Статус: проверено
Скачан: 0 раз
Размер: 4.31 GB
Оценка: 
(Голосов: 0)
Сказали спасибо: 0  Спасибо
Похожие темы
[Профиль]    [ЛС]
Показать сообщения:    
Ответить на тему

Текущее время: Сегодня 02:11

Часовой пояс: GMT + 7



Вы не можете начинать темы
Вы не можете отвечать на сообщения
Вы не можете редактировать свои сообщения
Вы не можете удалять свои сообщения
Вы не можете голосовать в опросах
Вы не можете прикреплять файлы к сообщениям
Вы можете скачивать файлы


Homeland | Estintore Auto 1kg manometro e supporto | Privacy Policy