Новости в одиннадцать / Новости в 11:00 / News at Eleven (Майк Роуб / Mike Robe) [1986, США, драма, триллер, VHSRip] AVO (Сергей Визгунов)

Ответить на тему
Статистика раздачи [Обновить пиров]
Размер:  1.46 GB   |    Зарегистрирован:  20 дней   |    Скачан:  0 раз

Полного источника не было: Никогда

 
   
 
 
 
Автор Сообщение

chi5o.com

Создавать темы 02-Янв-2019 20:29

[Цитировать]

Новости в одиннадцать / Новости в 11:00 / News at Eleven
Страна: США
Жанр: драма, триллер
Год выхода: 1986
Продолжительность: 01:35:00
Перевод: Авторский (одноголосый закадровый) Сергей Визгунов
Субтитры: нет
Режиссер: Майк Роуб / Mike Robe
В ролях: Мартин Шин, Питер Ригерт, Барбара Бэбкок, Дэвид Шайнер, Кристофер Оллпорт, Сьюзен Кребс, Криста Дентон, Аманда Ингбер, Сидни Пенни
Описание: Фрэнк Кенли работающий на телеканале сталкивается с рядом моральных дилемм, когда сталкивается с последним скандалом: учитель обвиняется в сексуальном насилии над студентом. Пытаясь держать дело в суде, вместо того, чтобы судить учителя по телевидению, закулисный продюсер берет дело из рук и поддается хирстовскому стилю «желтой журналистики».
IMDB
Сэмпл: http://multi-up.com/1219185
Качество видео: VHSRip (Источник: Torrentc DVD-Video)
Формат файла: AVI
Видео: XviD 73, 656x496, (4:3), 25,000 fps, 1966 Кбит/с, 8 бит, 0.24 bit/pixel
Аудио: Русский (АС3, 2 ch (Front: L R), 48,0 KHz, 224 Kbps)

MediaInfo

ОбщееПолное имя : H:\Фильмы на трекер\Новости в одинадцать (триллер, драма 1986 год).aviФормат файла : AVIФормат файла/Информация : Audio Video InterleaveРазмер файла : 1,46 ГбайтПродолжительность : 1 ч. 35 м.Общий поток : 2200 Кбит/секПрограмма кодирования : VirtualDubMod 1.5.10.3 | www.virtualdub-fr.org || (build 2550/release)Библиотека кодирования : VirtualDubMod build 2550/release
ВидеоИдентификатор : 0Формат файла : MPEG-4 VisualПрофиль формата : Advanced Simple@L5Параметр BVOP формата : 2Параметр QPel формата : НетПараметр GMC формата : Без точки переходаПараметр матрицы формата : ВыборочнаяИдентификатор кодека : XVIDИдентификатор кодека/Подсказка : XviDПродолжительность : 1 ч. 35 м.Битрейт : 1966 Кбит/секШирина : 656 пикселейВысота : 496 пикселейСоотношение сторон : 4:3Частота кадров : 25,000 кадров/секЦветовое пространство : YUVСубдискретизация насыщенности : 4:2:0Битовая глубина : 8 битТип развёртки : ПрогрессивнаяМетод сжатия : С потерямиБит/(Пиксели*Кадры) : 0.242Размер потока : 1,30 Гбайт (89%)Библиотека кодирования : XviD 73
АудиоИдентификатор : 1Формат файла : AC-3Формат файла/Информация : Audio Coding 3Расширение режима : CM (complete main)Параметр Endianness формата : BigИдентификатор кодека : 2000Продолжительность : 1 ч. 35 м.Вид битрейта : ПостоянныйБитрейт : 224 Кбит/секКаналы : 2 каналаРасположение каналов : Front: L RЧастота : 48,0 КГцЧастота кадров : 31,250 кадров/сек (1536 spf)Метод сжатия : С потерямиРазмер потока : 152 Мбайт (10%)Выравнивание : Разделение по промежуткамПродолжительность промежутка : 40 мс. (1,00 видеокадр)Время предзагрузки промежутка : 500 мс.

Скриншот c названием фильма

Скриншоты



[chi5o.com]_t_5668224.torrent
Торрент: Зарегистрирован ·  [ 2019-01-02 20:29 ] ·  976e6058889e6ce933a660e05372caef8300e11f

15 KB

Статус: проверено
Скачан: 0 раз
Размер: 1.46 GB
Оценка: 
(Голосов: 0)
Сказали спасибо: 0  Спасибо
Похожие темы
[Профиль]    [ЛС]
Показать сообщения:    
Ответить на тему

Текущее время: Сегодня 02:17

Часовой пояс: GMT + 7



Вы не можете начинать темы
Вы не можете отвечать на сообщения
Вы не можете редактировать свои сообщения
Вы не можете удалять свои сообщения
Вы не можете голосовать в опросах
Вы не можете прикреплять файлы к сообщениям
Вы можете скачивать файлы


Adult Life Skills (2016) | Highway Dragnet | High School Musical 1