Улика / Разгадка / Clue (Джонатан Линн / Jonathan Lynn) [1985, США, комедия, криминал, детектив, HDTVRip-AVC] MVO (Фильмэкспорт) + Sub Eng + Original Eng

Ответить на тему
Статистика раздачи [Обновить пиров]
Размер:  2.18 GB   |    Зарегистрирован:  20 дней   |    Скачан:  0 раз

Полного источника не было: Никогда

 
   
 
 
 
Автор Сообщение

chi5o.com

Создавать темы 02-Янв-2019 14:11

[Цитировать]

Улика / Разгадка / Clue
Страна: США
Жанр: комедия, криминал, детектив
Год выхода: 1985
Продолжительность: 01:32:48
Перевод: Профессиональный (многоголосый закадровый) Фильмэкспорт по заказу СТС
Субтитры: английские
Оригинальная аудиодорожка: английский
Режиссер: Джонатан Линн / Jonathan Lynn
В ролях: Айлин Бреннан, Тим Карри, Мэдлин Кан, Кристофер Ллойд, Майкл МакКин, Мартин Мулл, Лесли Энн Уоррен, Коллин Кэмп, Ли Винг, Билл Хендерсон...
Описание: Семь неизменных персонажей: гости, приглашенные в дом — мистер Грин, профессор Плам, миссис Пикок, полковник Мастард, миссис Уайт приезжают в загородное поместье, где их встречают дворецкий Уодсворт и хозяин дома, мистер Бодди, с убийства которого и начинается самое интересное.
Гостям во главе с неутомимым дворецким предстоит вычислить таинственного убийцу. У каждого, как выясняется, есть свой мотив, свое орудие преступления. Это может быть канделябр, отрезок трубы, гаечный ключ, веревка, револьвер или нож. У каждого из подозреваемых — своя страшная тайна.
Доп. информация: Звук с DVDRip, немного очищен от шума. Работа со звуком - Dreven.
Сэмпл: http://sendfile.su/1462629
Качество видео: HDTVRip-AVC
Формат файла: MKV
Видео: 1152x648 (16:9), 25.000 fps, AVC, ~2978 Kbps, 0.160 bits/pixel
Аудио 1: Russian, 48.0 KHz, AC3, 2 ch, 192 Kbps
Аудио 2: English, 48.0 KHz, AC3, 2 ch, 192 Kbps

Источник: Torrentc с BD

У HDTV больше наполнение кадра

Log

avs4x26x.exe: -L x264_64.exe --pass 2 --bitrate 2978 --preset medium --tune film --level 4.1 --ref 10 --merange 32 --bframes 10 --direct auto --b-adapt 2 --trellis 2 --no-fast-pskip --no-dct-decimate --psy-rd 1.00:0.20 --subme 10 --me umh --no-mbtree --vbv-bufsize 62500 --vbv-maxrate 50000 --partitions p8x8,b8x8,i4x4,i8x8 --sar 1:1 --stats
raw [info]: 1152x648p 1:1 @ 25/1 fps (cfr)
x264 [info]: using SAR=1/1
x264 [info]: using cpu capabilities: MMX2 SSE2Fast LZCNT
x264 [info]: profile High, level 4.1, 4:2:0, 8-bit
x264 [info]: frame I:1164 Avg QP:18.17 size: 88166
x264 [info]: frame P:34680 Avg QP:20.76 size: 28007
x264 [info]: frame B:103345 Avg QP:22.93 size: 9658
x264 [info]: consecutive B-frames: 1.5% 2.3% 4.5% 74.1% 9.7% 4.1% 2.5% 0.9% 0.2% 0.1% 0.2%
x264 [info]: mb I I16..4: 9.4% 74.3% 16.3%
x264 [info]: mb P I16..4: 1.1% 9.3% 0.8% P16..4: 47.5% 27.3% 11.8% 0.0% 0.0% skip: 2.3%
x264 [info]: mb B I16..4: 0.1% 0.7% 0.1% B16..8: 39.3% 7.1% 1.6% direct: 6.6% skip:44.6% L0:39.9% L1:49.2% BI:10.9%
x264 [info]: 8x8 transform intra:81.9% inter:62.6%
x264 [info]: direct mvs spatial:99.7% temporal:0.3%
x264 [info]: coded y,uvDC,uvAC intra: 88.9% 63.4% 26.6% inter: 28.0% 13.1% 2.0%
x264 [info]: i16 v,h,dc,p: 46% 10% 16% 28%
x264 [info]: i8 v,h,dc,ddl,ddr,vr,hd,vl,hu: 14% 8% 9% 9% 12% 13% 11% 12% 12%
x264 [info]: i4 v,h,dc,ddl,ddr,vr,hd,vl,hu: 16% 7% 4% 9% 13% 14% 12% 12% 12%
x264 [info]: i8c dc,h,v,p: 37% 27% 23% 13%
x264 [info]: Weighted P-Frames: Y:1.7% UV:0.6%
x264 [info]: ref P L0: 53.8% 11.7% 11.0% 6.4% 3.1% 4.7% 2.4% 2.7% 1.4% 2.7% 0.0% 0.0%
x264 [info]: ref B L0: 84.9% 8.1% 2.8% 1.1% 1.0% 0.7% 0.8% 0.3% 0.3%
x264 [info]: ref B L1: 96.3% 3.7%
x264 [info]: kb/s:2977.24
x264 [total]: encoded 139189 frames, 6.78 fps, 2977.24 kb/s

MediaInfo

GeneralUnique ID : 193460463991385972534096862435810164395 (0x918B214BFAC39A213CE46EBEB1A33EAB)Complete name : C:\Clue.mkvFormat : MatroskaFormat version : Version 4 / Version 2File size : 2.18 GiBDuration : 1 h 32 minOverall bit rate : 3 363 kb/sEncoded date : UTC 2018-12-18 17:21:30Writing application : mkvmerge v29.0.0 ('Like It Or Not') 64-bitWriting library : libebml v1.3.6 + libmatroska v1.4.9
VideoID : 1Format : AVCFormat/Info : Advanced Video CodecFormat profile : High@L4.1Format settings : CABAC / 10 Ref FramesFormat settings, CABAC : YesFormat settings, ReFrames : 10 framesCodec ID : V_MPEG4/ISO/AVCDuration : 1 h 32 minBit rate : 2 978 kb/sWidth : 1 152 pixelsHeight : 648 pixelsDisplay aspect ratio : 16:9Frame rate mode : ConstantFrame rate : 25.000 FPSColor space : YUVChroma subsampling : 4:2:0Bit depth : 8 bitsScan type : ProgressiveBits/(Pixel*Frame) : 0.160Stream size : 1.93 GiB (89%)Writing library : x264 core 157 r2935 545de2fEncoding settings : cabac=1 / ref=10 / deblock=1:-1:-1 / analyse=0x3:0x113 / me=umh / subme=10 / psy=1 / psy_rd=1.00:0.20 / mixed_ref=1 / me_range=32 / chroma_me=1 / trellis=2 / 8x8dct=1 / cqm=0 / deadzone=21,11 / fast_pskip=0 / chroma_qp_offset=-3 / threads=6 / lookahead_threads=1 / sliced_threads=0 / nr=0 / decimate=0 / interlaced=0 / bluray_compat=0 / constrained_intra=0 / bframes=10 / b_pyramid=2 / b_adapt=2 / b_bias=0 / direct=3 / weightb=1 / open_gop=0 / weightp=2 / keyint=250 / keyint_min=25 / scenecut=40 / intra_refresh=0 / rc_lookahead=40 / rc=2pass / mbtree=0 / bitrate=2978 / ratetol=1.0 / qcomp=0.60 / qpmin=0 / qpmax=69 / qpstep=4 / cplxblur=20.0 / qblur=0.5 / vbv_maxrate=50000 / vbv_bufsize=62500 / nal_hrd=none / filler=0 / ip_ratio=1.40 / pb_ratio=1.30 / aq=1:1.00Language : EnglishDefault : YesForced : No
Audio #1ID : 2Format : AC-3Format/Info : Audio Coding 3Commercial name : Dolby DigitalCodec ID : A_AC3Duration : 1 h 32 minBit rate mode : ConstantBit rate : 192 kb/sChannel(s) : 2 channelsChannel layout : L RSampling rate : 48.0 kHzFrame rate : 31.250 FPS (1536 SPF)Bit depth : 16 bitsCompression mode : LossyStream size : 127 MiB (6%)Language : RussianService kind : Complete MainDefault : YesForced : No
Audio #2ID : 3Format : AC-3Format/Info : Audio Coding 3Commercial name : Dolby DigitalCodec ID : A_AC3Duration : 1 h 32 minBit rate mode : ConstantBit rate : 192 kb/sChannel(s) : 2 channelsChannel layout : L RSampling rate : 48.0 kHzFrame rate : 31.250 FPS (1536 SPF)Bit depth : 16 bitsCompression mode : LossyStream size : 127 MiB (6%)Language : EnglishService kind : Complete MainDefault : NoForced : No
TextID : 4Format : UTF-8Codec ID : S_TEXT/UTF8Codec ID/Info : UTF-8 Plain TextDuration : 1 h 26 minBit rate : 81 b/sCount of elements : 1594Stream size : 51.5 KiB (0%)Language : EnglishDefault : NoForced : No

Скриншоты



[chi5o.com]_t_5661954.torrent
Торрент: Зарегистрирован ·  [ 2019-01-02 14:11 ] ·  7bb1f5c2fb5de0c1d9da1a08442db8d5de38e42b

11 KB

Статус: проверено
Скачан: 0 раз
Размер: 2.18 GB
Оценка: 
(Голосов: 0)
Сказали спасибо: 0  Спасибо
Похожие темы
[Профиль]    [ЛС]
Показать сообщения:    
Ответить на тему

Текущее время: Сегодня 02:46

Часовой пояс: GMT + 7



Вы не можете начинать темы
Вы не можете отвечать на сообщения
Вы не можете редактировать свои сообщения
Вы не можете удалять свои сообщения
Вы не можете голосовать в опросах
Вы не можете прикреплять файлы к сообщениям
Вы можете скачивать файлы


Wingware Wing IDE Professional 6.1.3-1 | Assistir Bleach 2018 Dublado Online HD | vidoza.net VF Dvdrip