Голые на заборе / Naakt over de schutting / Naked Over the Fence (Франс Вайс / Frans Weisz) [1973, Нидерланды, Криминальная драма, DVDRip] VO (Horror Maker) + Sub Rus + Original Nld

Ответить на тему
Статистика раздачи [Обновить пиров]
Размер:  1.41 GB   |    Зарегистрирован:  20 дней   |    Скачан:  0 раз

Полного источника не было: Никогда

 
   
 
 
 
Автор Сообщение

chi5o.com

Создавать темы 02-Янв-2019 14:11

[Цитировать]

Голые на заборе / Naakt over de schutting / Naked Over the Fence
Страна: Нидерланды
Жанр: Криминальная драма
Год выхода: 1973
Продолжительность: 01:32:20
Перевод: Одноголосый закадровый Horror Maker
Субтитры: Русские
Оригинальная аудиодорожка: Нидерландский
Режиссер: Франс Вайс / Frans Weisz
В ролях: Рийк де Гойер, Дженнифер Виллемс, Сильвия Кристель, Йон Блюминг, Аделе Блюмендаль, Тон Ленсинк, Джером Реехис, Джерри Бруер, Ханс Сийсес, Лодевик Сийсес, Яап Стоббе, Франс Халсема
Описание: Рик Лемминг (Рийк де Гойер) живет в самом сердце Амстердама, где он держит голубятню и салон с игровыми автоматами. Его лучший друг Эд Сваан, чемпион каратэ Нидерландов, по уши влюблён в певицу Лили (Сильвия Кристель). С помощью Эда Лилли заключает контракт с телевизионным режиссером, который уверяет всех, что будет снимать высоко художественный фильм. Рийк хочет проверить, куда втягивают его друга с подругой, и тайно наблюдает за съемками. На самом деле, снимается порнографический фильм. Во время съемок возникает конфликт между Эдом и Лилли, с одной стороны, и режиссером и его подручными, с другой. Первые вынуждены бежать с площадки в чём мать родила и даже форсировать преграды в виде заборов (отсюда название фильма). Утром на студии, куда Эд и Рийк пришли за брошенной одеждой, обнаружен труп хозяина киноплощадки. Друзья решают самостоятельно найти убийц. Следы ведут в гламурный мир телевидения и прессы. Одна из ранних работ в кино Сильвии Кристель. Эммануэль будет только через год...
Доп. информация: Рип с моего DVD за сабы Спасибо ССК+
Сэмпл: http://multi-up.com/1218083
Качество видео: DVDRip
Формат файла: AVI
Видео: XviD 688х488, 25.000 fps, 1 918 Kbps
Аудио 1: Русский (MP3 128 kbps 2 ch 48.0 KHz)
Аудио 2: Голландский (MP3 128 kbps 2 ch 48.0 KHz)
Формат файла субтитров: softsub (SRT)

MediaInfo

GeneralComplete name : C:\Documents and Settings\admin\Мои документы\Downloads\Naakt over de schutting AVI\Naakt over de schutting.aviFormat : AVIFormat/Info : Audio Video InterleaveFile size : 1.41 GiBDuration : 1h 32mnOverall bit rate : 2 189 KbpsWriting application : VirtualDubMod 1.5.4.1 (build 2066/release)Writing library : VirtualDubMod build 2066/release
VideoID : 0Format : MPEG-4 VisualFormat profile : Advanced Simple@L5Format settings, BVOP : 2Format settings, QPel : NoFormat settings, GMC : No warppointsFormat settings, Matrix : Default (MPEG)Codec ID : XVIDCodec ID/Hint : XviDDuration : 1h 32mnBit rate : 1 918 KbpsWidth : 688 pixelsHeight : 448 pixelsDisplay aspect ratio : 3:2Frame rate : 25.000 fpsColor space : YUVChroma subsampling : 4:2:0Bit depth : 8 bitsScan type : ProgressiveCompression mode : LossyBits/(Pixel*Frame) : 0.249Stream size : 1.24 GiB (88%)Writing library : XviD 67
Audio #1ID : 1Format : MPEG AudioFormat version : Version 1Format profile : Layer 3Mode : Joint stereoMode extension : MS StereoCodec ID : 55Codec ID/Hint : MP3Duration : 1h 32mnBit rate mode : ConstantBit rate : 128 KbpsChannel(s) : 2 channelsSampling rate : 48.0 KHzCompression mode : LossyStream size : 84.5 MiB (6%)Alignment : Aligned on interleavesInterleave, duration : 40 ms (1.00 video frame)Interleave, preload duration : 504 msWriting library : LAME3.99rEncoding settings : -m j -V 4 -q 5 -lowpass 17 -b 128
Audio #2ID : 2Format : MPEG AudioFormat version : Version 1Format profile : Layer 3Mode : Joint stereoMode extension : MS StereoCodec ID : 55Codec ID/Hint : MP3Duration : 1h 32mnBit rate mode : ConstantBit rate : 128 KbpsChannel(s) : 2 channelsSampling rate : 48.0 KHzCompression mode : LossyStream size : 84.5 MiB (6%)Alignment : Aligned on interleavesInterleave, duration : 40 ms (1.00 video frame)Interleave, preload duration : 504 msWriting library : LAME3.99rEncoding settings : -m j -V 4 -q 5 -lowpass 17 -b 128

Скриншот c названием фильма

Скриншоты

Пример субтитров

1
00:00:35,635 --> 00:00:38,571
ГОЛЫЕ НА ЗАБОРЕ
2
00:03:15,420 --> 00:03:17,707
А, прилетел всё-таки!?
3
00:03:18,644 --> 00:03:20,689
А я уж думал, что тебя перехватили.
4
00:03:25,596 --> 00:03:28,228
Надо было бы оставить тебя без ужина.
5
00:03:40,393 --> 00:03:44,594
Рик?
- Должен ещё один прилететь из Франции.
6
00:03:55,923 --> 00:03:57,794
Рик.
7
00:04:02,326 --> 00:04:04,320
Я ещё жду Пугливого.
8
00:04:13,819 --> 00:04:16,825
Я иду одна.
-Ладно.
9
00:04:19,890 --> 00:04:23,187
Когда он прилетит, скажи ему, чтобы
сам снял кольцо.
10
00:04:23,287 --> 00:04:25,776
С вами одна морока.
11
00:04:35,330 --> 00:04:42,187
Рик, тут у одного проблемы.
Говорит, что автомат съел уже 75 баксов.
12
00:04:42,188 --> 00:04:43,188
Можешь починить?
13
00:04:45,259 --> 00:04:47,524
Эта хрень специально так настроена, что ли?
14
00:04:47,624 --> 00:04:49,166
Дай монету.
15
00:05:25,924 --> 00:05:28,555
Не напирай на приклад, крикун.
Что ещё?
16
00:05:28,624 --> 00:05:31,226
Пара автоматов не дают прибыли.
17
00:05:31,326 --> 00:05:33,721
Который? Этот?
18
00:05:33,821 --> 00:05:36,240
Ха, можно подумать, что там дыра.
19
00:05:36,871 --> 00:05:39,257
Сколько времени ты мне талдычил
про своего лучшего друга Эда?
20
00:05:39,357 --> 00:05:42,199
И вот, когда он собрался вернуться на арену,
ты торчишь здесь.


[chi5o.com]_t_5555789.torrent
Торрент: Зарегистрирован ·  [ 2019-01-02 14:11 ] ·  a116934439b34cbc97643269f5b1e22c7fed6508

15 KB

Статус: проверено
Скачан: 0 раз
Размер: 1.41 GB
Оценка: 
(Голосов: 0)
Сказали спасибо: 0  Спасибо
Похожие темы
[Профиль]    [ЛС]
Показать сообщения:    
Ответить на тему

Текущее время: Сегодня 02:04

Часовой пояс: GMT + 7



Вы не можете начинать темы
Вы не можете отвечать на сообщения
Вы не можете редактировать свои сообщения
Вы не можете удалять свои сообщения
Вы не можете голосовать в опросах
Вы не можете прикреплять файлы к сообщениям
Вы можете скачивать файлы


Understanding and Using English Grammar (Full Student Book with Answer Key) | Technotip | Download Now