Двойник / Двойникът (Николай Волев) [1980, Болгария, комедия, VHSRip > DVD] [Советская прокатная копия] Dub (Союзмультфильм)

Ответить на тему
Статистика раздачи [Обновить пиров]
Размер:  5.08 GB   |    Зарегистрирован:  20 дней   |    Скачан:  0 раз

Полного источника не было: Никогда

 
   
 
 
 
Автор Сообщение

chi5o.com

Создавать темы 02-Янв-2019 14:11

[Цитировать]

Двойник / Двойникът [Советская прокатная копия]- Страна: Болгария
Жанр: комедия
Год выхода: 1980
Продолжительность: 01:21:33-Перевод: Профессиональный (дублированный) - Киностудия "Союзмультфильм"
Субтитры: нет-Режиссер: Николай Волев
В ролях: Тодор Колев, Павел Попандов, Йорданка Кузманова, Радосвета Василева, Любен Калинов, Георгий Русев, Надя Тодорова, Анета Сотирова, Иван Янчев, Георги Мамалев, Кина Мутафова, Таня Вучкова, Ева-Мария Радичкова, Георги Г. Георгиев, Иван Кутевски, Теодор Юруков, Нина Арнаудова, Антон Карастоянов, Екатерина Славова, Анелия Атова, Димитр Георгиев, Трифон Георгиев, Аспарух Сариев- | : -Описание: Талантливый учёный Денев никак не может заняться научной работой, поскольку его отвлекают общественные обязанности. Отчаявшись, он предлагает своему двоюродному брату, удивительно похожему на него, частично взять их на себя. Тот с удовольствием соглашается. Однако спустя некоторое время учёный узнаёт, что братец "с блеском" употребил его имя для самообогащения...-Доп. информация: За оцифровку VHS большое спасибо коллеге [url=profile.php?mode=viewprofile&u=13397966]Nekontroliruemij_devil[/url].-Семпл: http://sendfile.su/1463519-Тип релиза: VHSRip
Формат файла: DVD-Video (DVD9)
Видео: 720x576 (4:3) @ 768x576, 25.000 fps, MPEG-2 Video, ~7970 Kbps, 0.769 bits/pixel
Аудио: Русский, 48.0 KHz, PCM, 1 ch, 768 Kbps

DVDInfo

Title: Двойник 1980 Dub СоюзмультфильмSize: 5.08 Gb ( 5 321 776,00 KBytes ) - DVD-9Enabled regions: 1, 2, 3, 4, 5, 6, 7, 8
VTS_01 : Play Length: 01:21:33 Video: PAL 4:3 (720x576) VBR Audio: Russian (LinearPCM, 1 ch)

MediaInfo

GeneralComplete name : \Двойник 1980 Dub Союзмультфильм\VIDEO_TS\VTS_01_1.VOBFormat : MPEG-PSFile size : 1 024 MiBDuration : 16 min 3 sOverall bit rate mode : VariableOverall bit rate : 8 916 kb/s
VideoID : 224 (0xE0)Format : MPEG VideoFormat version : Version 2Format profile : Main@MainFormat settings : BVOPFormat settings, BVOP : YesFormat settings, Matrix : DefaultFormat settings, GOP : VariableFormat settings, picture structure : FrameDuration : 16 min 3 sBit rate mode : VariableBit rate : 7 970 kb/sMaximum bit rate : 8 200 kb/sWidth : 720 pixelsHeight : 576 pixelsDisplay aspect ratio : 4:3Frame rate : 25.000 FPSStandard : PALColor space : YUVChroma subsampling : 4:2:0Bit depth : 8 bitsScan type : InterlacedScan order : Top Field FirstCompression mode : LossyBits/(Pixel*Frame) : 0.769Time code of first frame : 00:00:00:00Time code source : Group of pictures headerStream size : 915 MiB (89%)
AudioID : 189 (0xBD)-160 (0xA0)Format : PCMFormat settings : Big / SignedMuxing mode : DVD-VideoDuration : 16 min 3 sBit rate mode : ConstantBit rate : 768 kb/sChannel(s) : 1 channelChannel layout : CSampling rate : 48.0 kHzBit depth : 16 bitsStream size : 88.2 MiB (9%)
Menu


[chi5o.com]_t_5663790.torrent
Торрент: Зарегистрирован ·  [ 2019-01-02 14:11 ] ·  f40ff668e3ef1b5a35b56e9d171368f14feded60

26 KB

Статус: проверено
Скачан: 0 раз
Размер: 5.08 GB
Оценка: 
(Голосов: 0)
Сказали спасибо: 0  Спасибо
Похожие темы
[Профиль]    [ЛС]
Показать сообщения:    
Ответить на тему

Текущее время: Сегодня 02:02

Часовой пояс: GMT + 7



Вы не можете начинать темы
Вы не можете отвечать на сообщения
Вы не можете редактировать свои сообщения
Вы не можете удалять свои сообщения
Вы не можете голосовать в опросах
Вы не можете прикреплять файлы к сообщениям
Вы можете скачивать файлы


Pointed Shoes | Tiny Christmas | Pokertafels