Полет "Черного ангела" / Flight of Black Angel (Джонатан Мостоу / Jonathan Mostow) [1990, США, Боевик, триллер, DVDRip] AVO (Павел Прямостанов) + Original Eng

Ответить на тему
Статистика раздачи [Обновить пиров]
Размер:  1.4 GB   |    Зарегистрирован:  20 дней   |    Скачан:  0 раз

Полного источника не было: Никогда

 
   
 
 
 
Автор Сообщение

chi5o.com

Создавать темы 02-Янв-2019 14:11

[Цитировать]

Полет "Черного ангела" / Flight of Black Angel
Страна: США
Жанр: Боевик, триллер
Год выхода: 1990
Продолжительность: 01:37:44
Перевод: Авторский (одноголосый закадровый) Павел Прямостанов
Субтитры: нет
Оригинальная аудиодорожка: английский
Режиссер: Джонатан Мостоу / Jonathan Mostow
В ролях: Питер Штраусс, Уильям О’Лири, Джеймс О’Салливан, К Кэллан, Мишель Поук, Майкл Кис
Холл, Бен Роунсли, Маркус Чонг, Джерри Боссар, Патриция Силл
Описание: Аннотация от alenavova
От людей, избравших своей профессией убивать (с одной точки зрения) или "защищать Родину" (с другой), можно ожидать чего угодно. Нажмет какой-нибудь не совсем нормальный военный человек "красную кнопочку" - и Земля отправится в тартарары вместе со всем своим содержимым. То бишь вместе с человечеством. Капитан Эдди Гордон был, несомненно, одним из лучших летчиков на базе ВВС США в штате Невада. И законопослушен, и спокоен, и религиозен. Чуть что, сразу Библию в руки. А там про пороки, наказание, волю Господа, Судный День и проч. много всякого понаписано. И однажды капитан Эдди Гордон поднялся в воздух с ядерной бомбочкой на борту, разгромил (из обычного оружия) родной аэродром и собственное начальство, после чего отправился к Лас-Вегасу, чтобы устроить гнезду разврата Судный День. Ангелом-Мстителем назвал себя Эдди Гордон... Фильм, заставляющий серьезно задуматься о роли армии в нашей жизни.
Доп. информация: Дорожка с П. Прямостановым синхронизирована и наложена ale_x2008 при помощи Adobe Audition, Sony Vegas и VirtualDubMod.
За оцифрованную с VHS дорожку благодарим - alenavova


Сэмпл: http://yadi.sk/i/AhqYb03mmOwAPQ
Качество видео: DVDRip
Формат файла: AVI
Видео: XviD build 73, 704x528 (1.33:1), 25 fps, 1658 kbps avg, 0.18 bit/pixel
Аудио: AC3 Dolby Digital, 48000Hz 2/0 (L,R) ch (mono), 192 kbps avg
Аудио 2: AC3 Dolby Digital, 48000Hz 2/0 (L,R) ch, 192 kbps avg

MediaInfo

Полет Черного ангела - Flight of Black Angel [by ale_x2008].aviFormat : AVIFormat/Info : Audio Video InterleaveFile size : 1.40 GiBDuration : 1 h 37 minOverall bit rate : 2 057 kb/sMovie name : Полет Черного ангела - Flight of Black Angel [by ale_x2008]Director : by ale_x2008Writing application : VirtualDubMod 1.5.10.2 (build 2540/release)Copyright : Edich2Comment : Torrentc
VideoID : 0Format : MPEG-4 VisualFormat profile : Advanced Simple@L5Format settings : BVOP1 / Custom MatrixFormat settings, BVOP : 1Format settings, QPel : NoFormat settings, GMC : No warppointsFormat settings, Matrix : CustomCodec ID : XVIDCodec ID/Hint : XviDDuration : 1 h 37 minBit rate : 1 658 kb/sWidth : 704 pixelsHeight : 528 pixelsDisplay aspect ratio : 4:3Frame rate : 25.000 FPSColor space : YUVChroma subsampling : 4:2:0Bit depth : 8 bitsScan type : ProgressiveCompression mode : LossyBits/(Pixel*Frame) : 0.178Stream size : 1.13 GiB (81%)Writing library : XviD 73
Audio #1ID : 1Format : AC-3Format/Info : Audio Coding 3Codec ID : 2000Duration : 1 h 37 minBit rate mode : ConstantBit rate : 192 kb/sChannel(s) : 2 channelsChannel positions : Front: L RSampling rate : 48.0 kHzFrame rate : 31.250 FPS (1536 SPF)Bit depth : 16 bitsCompression mode : LossyStream size : 134 MiB (9%)Alignment : Split accross interleavesInterleave, duration : 40 ms (1.00 video frame)Interleave, preload duratio : 500 msService kind : Complete Main
Audio #2ID : 2Format : AC-3Format/Info : Audio Coding 3Codec ID : 2000Duration : 1 h 37 minBit rate mode : ConstantBit rate : 192 kb/sChannel(s) : 2 channelsChannel positions : Front: L RSampling rate : 48.0 kHzFrame rate : 31.250 FPS (1536 SPF)Bit depth : 16 bitsCompression mode : LossyStream size : 134 MiB (9%)Alignment : Split accross interleavesInterleave, duration : 40 ms (1.00 video frame)Interleave, preload duratio : 500 msService kind : Complete Main

Скриншоты




[chi5o.com]_t_5664286.torrent
Торрент: Зарегистрирован ·  [ 2019-01-02 14:11 ] ·  71dabd06fabe03f53a8e053d6d4a711e514170a7

15 KB

Статус: проверено
Скачан: 0 раз
Размер: 1.4 GB
Оценка: 
(Голосов: 0)
Сказали спасибо: 0  Спасибо
Похожие темы
[Профиль]    [ЛС]
Показать сообщения:    
Ответить на тему

Текущее время: Сегодня 02:05

Часовой пояс: GMT + 7



Вы не можете начинать темы
Вы не можете отвечать на сообщения
Вы не можете редактировать свои сообщения
Вы не можете удалять свои сообщения
Вы не можете голосовать в опросах
Вы не можете прикреплять файлы к сообщениям
Вы можете скачивать файлы


Magnolia Table | Customized Service | FolierSet Folien Verklebe Set 70% Härte Micro Orange Rakel Magnetisch Dichtung