Папаши / The ComDads / Les comperes (Франсис Вебер / Francis Veber) [1983, Франция, Комедия, криминал, BDRip] AVO (Павел Прямостанов) + Original Fra

Ответить на тему
Статистика раздачи [Обновить пиров]
Размер:  1.45 GB   |    Зарегистрирован:  20 дней   |    Скачан:  0 раз

Полного источника не было: Никогда

 
   
 
 
 
Автор Сообщение

chi5o.com

Создавать темы 02-Янв-2019 14:11

[Цитировать]

Папаши / The ComDads / Les comperes
Страна: Франция
Жанр: Комедия, криминал
Год выхода: 1983
Продолжительность: 01:30:59
Перевод: Авторский (одноголосый закадровый) Павел Прямостанов
Субтитры: нет
Оригинальная аудиодорожка: французский
Режиссер: Франсис Вебер / Francis Veber
В ролях: Пьер Ришар
Жерар Депардье
Стефан Бьерри
Анни Дюпере
Мишель Омон
Жан-Жак Шеффер
Филипп Хорсан
Ролан Бланш
Жак Франц
Морис Барье
Описание: Подросток сбегает из дома вместе со своей подружкой. Полиция оказывается бессильна, и тогда мать решает обратиться к двум старым знакомым, с которыми она когда-то встречалась. Чтобы у них был стимул искать мальчишку, она сообщает каждому из них, что именно он приходится отцом мальчику. Журналист, имеющий вечные неприятности с криминальными элементами, и школьный учитель, вечно помышляющий о суициде, вместе отправляются на поиски. Они не знают, что искать им придется одного и того же человека.
Доп. информация: За звуковую дорожку П . Прямостанова благодарим alenavova , m.mamichev за активное участие ,а также мне за синхрон дорожки.
Видеоряд взял здесь http://Torrentc/forum/viewtopic.php?t=4879489
Сэмпл: http://yadi.sk/i/G8P6FpV8BDCmsQ
Качество видео: BDRip
Формат файла: AVI
Видео: 720x432 (1.67:1), 24 fps, XviD build 65 ~1885 kbps avg, 0.25 bit/pixel
Аудио: 48 kHz, AC3 Dolby Digital, 3/2 (L,R), ~192.00 kbps avg
Аудио 2: 48 kHz, AC3 Dolby Digital, 3/2 (L,R), ~192.00 kbps avg

MediaInfo

Complete name Папаши 1983 (Pryamostanov).aviFormat : AVIFormat/Info : Audio Video InterleaveFile size : 1.45 GiBDuration : 1h 30mnOverall bit rate : 2 282 KbpsWriting application : VirtualDubMod 1.5.10.3 | www.virtualdub-fr.org || (build 2550/release)Writing library : VirtualDubMod build 2550/release
VideoID : 0Format : MPEG-4 VisualFormat profile : Advanced Simple@L5Format settings, BVOP : 1Format settings, QPel : NoFormat settings, GMC : No warppointsFormat settings, Matrix : CustomCodec ID : XVIDCodec ID/Hint : XviDDuration : 1h 30mnBit rate : 1 885 KbpsWidth : 720 pixelsHeight : 432 pixelsDisplay aspect ratio : 5:3Frame rate : 24.000 fpsColor space : YUVChroma subsampling : 4:2:0Bit depth : 8 bitsScan type : ProgressiveCompression mode : LossyBits/(Pixel*Frame) : 0.252Stream size : 1.20 GiB (83%)Writing library : XviD 65
Audio #1ID : 1Format : AC-3Format/Info : Audio Coding 3Mode extension : CM (complete main)Format settings, Endianness : BigCodec ID : 2000Duration : 1h 30mnBit rate mode : ConstantBit rate : 192 KbpsChannel(s) : 2 channelsChannel positions : Front: L RSampling rate : 48.0 KHzFrame rate : 31.250 fps (1536 spf)Compression mode : LossyStream size : 125 MiB (8%)Alignment : Split accross interleavesInterleave, duration : 42 ms (1.00 video frame)Interleave, preload duratio : 500 ms
Audio #2ID : 2Format : AC-3Format/Info : Audio Coding 3Mode extension : CM (complete main)Format settings, Endianness : BigCodec ID : 2000Duration : 1h 30mnBit rate mode : ConstantBit rate : 192 KbpsChannel(s) : 2 channelsChannel positions : Front: L RSampling rate : 48.0 KHzFrame rate : 31.250 fps (1536 spf)Compression mode : LossyStream size : 125 MiB (8%)Alignment : Split accross interleavesInterleave, duration : 42 ms (1.00 video frame)Interleave, preload duratio : 500 ms

Скриншоты



[chi5o.com]_t_5664632.torrent
Торрент: Зарегистрирован ·  [ 2019-01-02 14:11 ] ·  5dbf91e0cc2fab758b56a108bb5da4719aae13bf

15 KB

Статус: проверено
Скачан: 0 раз
Размер: 1.45 GB
Оценка: 
(Голосов: 0)
Сказали спасибо: 0  Спасибо
Похожие темы
[Профиль]    [ЛС]
Показать сообщения:    
Ответить на тему

Текущее время: Сегодня 02:18

Часовой пояс: GMT + 7



Вы не можете начинать темы
Вы не можете отвечать на сообщения
Вы не можете редактировать свои сообщения
Вы не можете удалять свои сообщения
Вы не можете голосовать в опросах
Вы не можете прикреплять файлы к сообщениям
Вы можете скачивать файлы


BMW 1er Scheinwerferblenden Aufkleber LCI E87 E81 E82 E88 Performance Devil Eyes | Catch Me If You Can | cypecad 2018