Покровитель / Защитник / На страже закона / The Protector (Джеймс Гликенхаус / James Glickenhaus) [1985, США, Гонконг, боевик, криминал, BDRip] AVO (Василий Горчаков) + AVO (Юрий Товбин)

Ответить на тему
Статистика раздачи [Обновить пиров]
Размер:  1.46 GB   |    Зарегистрирован:  20 дней   |    Скачан:  0 раз

Полного источника не было: Никогда

 
   
 
 
 
Автор Сообщение

chi5o.com

Создавать темы 02-Янв-2019 14:11

[Цитировать]

Покровитель / Защитник / На страже закона / The Protector
Страна: США, Гонконг
Жанр: боевик, криминал
Год выхода: 1985
Продолжительность: 01:35:29
Перевод: Авторский (одноголосый закадровый) Василий Горчаков
Перевод 2: Авторский (одноголосый закадровый) Юрий Товбин
Субтитры: нет
Режиссер: Джеймс Гликенхаус / James Glickenhaus
В ролях: Джеки Чан, Дэнни Айелло, Сэнди Александр, Виктор Арнольд, Ким Басс, Ирен Бритто, Кемэрон Гликенхаус, Аль Серулло, Рой Чяо
Описание: Полицейский Билл Вонг и его напарник Дэнни Гарони, сменивший бывшего партнера Вонга, который погиб в перестрелке, занимаются организацией безопасного шоу мод, но во время показа на здание нападают вооруженные люди и выкрадывают дочь влиятельного бизнесмена Мартина Шапиро. Посрамленные, но не сломленные, Вонг и Гарони отправляются в Гонконг, куда ведут следы похитителей...
Доп. информация: Выражаю огромную благодарность Нордеру за синхронизацию звуковых дорожек. За дороги благодарим vilkus

Сэмпл: http://multi-up.com/1218530
Качество видео: BDRip (Источник: Torrentc BDRemux 1080p)
Формат файла: AVI
Видео: XviD 73, 720x384, (1,85:1), 23,976 fps, 1750 Кбит/с, 8 бит, 0.27 bit/pixel
Аудио: Русский (АС3, 2 ch (Front: L R), 48,0 KHz, 192 Kbps) Василий Горчаков
Аудио 2: Русский (АС3, 2 ch (Front: L R), 48,0 KHz, 192 Kbps) Юрий Товбин

MediaInfo

ОбщееПолное имя : H:\Фильмы на трекер\Покровитель (боевик, криминал 1985 год).aviФормат файла : AVIФормат файла/Информация : Audio Video InterleaveРазмер файла : 1,46 ГбайтПродолжительность : 1 ч. 35 м.Общий поток : 2195 Кбит/секПрограмма кодирования : VirtualDubMod 1.5.10.2 (build 2540/release)Библиотека кодирования : VirtualDubMod build 2540/release
ВидеоИдентификатор : 0Формат файла : MPEG-4 VisualПрофиль формата : Advanced Simple@L5Параметр BVOP формата : 2Параметр QPel формата : НетПараметр GMC формата : Без точки переходаПараметр матрицы формата : ВыборочнаяИдентификатор кодека : XVIDИдентификатор кодека/Подсказка : XviDПродолжительность : 1 ч. 35 м.Битрейт : 1797 Кбит/секШирина : 720 пикселейВысота : 384 пикселяСоотношение сторон : 1,85:1Частота кадров : 23,976 (23976/1000) кадра/секЦветовое пространство : YUVСубдискретизация насыщенности : 4:2:0Битовая глубина : 8 битТип развёртки : ПрогрессивнаяМетод сжатия : С потерямиБит/(Пиксели*Кадры) : 0.271Размер потока : 1,20 Гбайт (82%)Библиотека кодирования : XviD 73
Аудио #1Идентификатор : 1Формат файла : AC-3Формат файла/Информация : Audio Coding 3Расширение режима : CM (complete main)Параметр Endianness формата : BigИдентификатор кодека : 2000Продолжительность : 1 ч. 35 м.Вид битрейта : ПостоянныйБитрейт : 192 Кбит/секКаналы : 2 каналаРасположение каналов : Front: L RЧастота : 48,0 КГцЧастота кадров : 31,250 кадров/сек (1536 spf)Метод сжатия : С потерямиРазмер потока : 131 Мбайт (9%)Выравнивание : Разделение по промежуткамПродолжительность промежутка : 42 мс. (1,00 видеокадр)Время предзагрузки промежутка : 500 мс.
Аудио #2Идентификатор : 2Формат файла : AC-3Формат файла/Информация : Audio Coding 3Расширение режима : CM (complete main)Параметр Endianness формата : BigИдентификатор кодека : 2000Продолжительность : 1 ч. 35 м.Вид битрейта : ПостоянныйБитрейт : 192 Кбит/секКаналы : 2 каналаРасположение каналов : Front: L RЧастота : 48,0 КГцЧастота кадров : 31,250 кадров/сек (1536 spf)Метод сжатия : С потерямиРазмер потока : 131 Мбайт (9%)Выравнивание : Разделение по промежуткамПродолжительность промежутка : 42 мс. (1,00 видеокадр)Время предзагрузки промежутка : 500 мс.

Скриншот c названием фильма

Скриншоты



[chi5o.com]_t_5664780.torrent
Торрент: Зарегистрирован ·  [ 2019-01-02 14:11 ] ·  1acd9eb10bf431f78a4cf4f43a813caa74a9a65a

15 KB

Статус: проверено
Скачан: 0 раз
Размер: 1.46 GB
Оценка: 
(Голосов: 0)
Сказали спасибо: 0  Спасибо
Похожие темы
[Профиль]    [ЛС]
Показать сообщения:    
Ответить на тему

Текущее время: Сегодня 02:06

Часовой пояс: GMT + 7



Вы не можете начинать темы
Вы не можете отвечать на сообщения
Вы не можете редактировать свои сообщения
Вы не можете удалять свои сообщения
Вы не можете голосовать в опросах
Вы не можете прикреплять файлы к сообщениям
Вы можете скачивать файлы


Massacre no Bairro Japonês Dublado Online Assistir Massacre no Bairro Japonês Dublado Online HD 720p O americano de educação japonesa Chris Kenner é um policial responsável por Little Tóquio, um bairro de Los Angeles. Kenner faz parceria com Johnny Murata, um nipo-americano que não tem contato com suas raízes. Apesar de suas diferenças, os dois se sobressaem por suas habilidades em artes marciais quando lutam contra Yoshida, ... | FIFA 16 Soccer | Bumper.io