У Джанго трупы за полцены / И у трупа Джанго есть своя цена / Django’s Cut Price Corpses / Anche per Django le carogne hanno un prezzo (Луиджи Батцелла / Luigi Batzella) [1971, Италия, вестерн, приключения, DVDRip] VO (Алексей Яковлев)

Ответить на тему
Статистика раздачи [Обновить пиров]
Размер:  1.36 GB   |    Зарегистрирован:  20 дней   |    Скачан:  0 раз

Полного источника не было: Никогда

 
   
 
 
 
Автор Сообщение

chi5o.com

Создавать темы 02-Янв-2019 14:11

[Цитировать]

У Джанго трупы за полцены / И у трупа Джанго есть своя цена / Django’s Cut Price Corpses / Anche per Django le carogne hanno un prezzo
Страна: Италия
Жанр: вестерн, приключения
Год выхода: 1971
Продолжительность: 01:22:15
Перевод: Одноголосый закадровый Алексей Яковлев
Субтитры: нет
Режиссер: Луиджи Батцелла / Luigi Batzella
В ролях: Джефф Камерон, Эсмеральда Баррош, Дженгер Гатти, Эдилио Ким, Уильям Мэйор, Анджела Порталури, Марио Де Роза, Франко Дэдди
Описание: Братья Кортез грабят банк и скрываются за мексиканской границей. По их следам идёт множество людей: шериф Фултон, охотник за головами Джанго, обворованный Кортезами Пиквик, а также конкуренты братьев — владельцы салуна Педро и Долорес....
Сэмпл: http://yadi.sk/i/nIwEvI2M8KFRjw
Качество видео: DVDRip (Источник: Torrentc - DVD5)
Формат файла: AVI
Видео: XviD 73, 640x352, (16:9), 23,976 fps, 2142 Кбит/с, 8 бит
Аудио: Русский (АС3, 2 ch (Front: L R), 48,0 KHz, 224 Kbps)

MediaInfo

ОбщееПолное имя : H:\Фильмы на трекер\У Джанго трупы за полцены (вестерн, приключения 1971 год).aviФормат файла : AVIФормат файла/Информация : Audio Video InterleaveРазмер файла : 1,36 ГбайтПродолжительность : 1 ч. 22 м.Общий поток : 2375 Кбит/секПрограмма кодирования : VirtualDubMod 1.5.10.3 | www.virtualdub-fr.org || (build 2550/release)Библиотека кодирования : VirtualDubMod build 2550/release
ВидеоИдентификатор : 0Формат файла : MPEG-4 VisualПрофиль формата : Advanced Simple@L5Параметр BVOP формата : 2Параметр QPel формата : НетПараметр GMC формата : Без точки переходаПараметр матрицы формата : ВыборочнаяИдентификатор кодека : XVIDИдентификатор кодека/Подсказка : XviDПродолжительность : 1 ч. 22 м.Битрейт : 2142 Кбит/секШирина : 640 пикселейВысота : 352 пикселяСоотношение сторон : 16:9Частота кадров : 23,976 (24000/1001) кадра/секЦветовое пространство : YUVСубдискретизация насыщенности : 4:2:0Битовая глубина : 8 битТип развёртки : ПрогрессивнаяМетод сжатия : С потерямиБит/(Пиксели*Кадры) : 0.397Размер потока : 1,23 Гбайт (90%)Библиотека кодирования : XviD 73
АудиоИдентификатор : 1Формат файла : AC-3Формат файла/Информация : Audio Coding 3Расширение режима : CM (complete main)Параметр Endianness формата : BigИдентификатор кодека : 2000Продолжительность : 1 ч. 22 м.Вид битрейта : ПостоянныйБитрейт : 224 Кбит/секКаналы : 2 каналаРасположение каналов : Front: L RЧастота : 48,0 КГцЧастота кадров : 31,250 кадров/сек (1536 spf)Метод сжатия : С потерямиРазмер потока : 132 Мбайт (9%)Выравнивание : Разделение по промежуткамПродолжительность промежутка : 42 мс. (1,00 видеокадр)Время предзагрузки промежутка : 500 мс.

Скриншот c названием фильма

Скриншоты



[chi5o.com]_t_5665290.torrent
Торрент: Зарегистрирован ·  [ 2019-01-02 14:11 ] ·  f2a90f0623f99cde5901a5fc4be06ac6777ba45e

14 KB

Статус: проверено
Скачан: 0 раз
Размер: 1.36 GB
Оценка: 
(Голосов: 0)
Сказали спасибо: 0  Спасибо
Похожие темы
[Профиль]    [ЛС]
Показать сообщения:    
Ответить на тему

Текущее время: Сегодня 02:26

Часовой пояс: GMT + 7



Вы не можете начинать темы
Вы не можете отвечать на сообщения
Вы не можете редактировать свои сообщения
Вы не можете удалять свои сообщения
Вы не можете голосовать в опросах
Вы не можете прикреплять файлы к сообщениям
Вы можете скачивать файлы


Fairy Tail 521 | OST et BO | Operating Systems