Стигма / Stigma (Лоуренс Гордон Кларк/Lawrence Gordon Clark) [1977, Великобритания, Мистика, DVDRip-AVC] VO (Клерик) + Sub rus (Юлия2705), eng + Original Eng

Ответить на тему
Статистика раздачи [Обновить пиров]
Размер:  649 MB   |    Зарегистрирован:  20 дней   |    Скачан:  0 раз

Полного источника не было: Никогда

 
   
 
 
 
Автор Сообщение

chi5o.com

Создавать темы 02-Янв-2019 14:11

[Цитировать]

Стигма / Stigma
Страна: Великобритания
Жанр: Мистика
Год выхода: 1977
Продолжительность: 31:47
Перевод: Одноголосый закадровый (любительский) Клерик
Субтитры: русские Юлия2705 (madelaine)
Субтитры: английские
Оригинальная аудиодорожка: английский
Режиссер: Лоуренс Гордон Кларк/Lawrence Gordon Clark
В ролях: Кейт Бинчи/Kate Binchy (Кэтрин), Питер Боулз/Peter Bowles (Питер), Максин Гордон/Maxine Gordon (Верити), Джон Лоримор/Jon Laurimore (доктор Холл), Кристофер Блейк/Christopher Blake (Ричард), Джон Джудд/John Judd (Дэйв)
Описание: Молодая пара переезжает в отдалённый загородный дом, стоящий посреди каменного круга. Они нанимают рабочих, которые нарушают древний менгир, высвобождая тем самым сверхъестественную силу.
Доп. информация: Седьмой фильм цикла Ghost Stories for Christmas, выпускавшегося студией BBC с 1971 года.
Сэмпл: http://sendfile.su/1464351
Качество видео: DVDRip-AVC
Формат файла: MKV
Видео: AVC, 690х568, 4:3, 25.000 FPS, 2 284 kb/s
Аудио: AC-3, 48.0 kHz, 2 ch, 192 kb/s
Аудио 2: AC-3, 48.0 kHz, 2 ch, 320 kb/s
Формат файла субтитров: softsub (SRT)
Постер, описание и русские субтитры взяты из раздачи пользователя [url=profile.php?mode=viewprofile&u=5835182]Юлия2705[/url]
Рип не мой, взял на тематическом сайте.

MediaInfo

Format : MatroskaFormat version : Version 2File size : 649 MiBDuration : 31 min 47 sOverall bit rate : 2 853 kb/sEncoded date : UTC 2018-12-26 10:44:49Writing application : mkvmerge v7.8.0 ('River Man') 32bit built on Apr 3 2015 12:11:22Writing library : libebml v1.3.1 + libmatroska v1.4.2
VideoID : 1Format : AVCFormat/Info : Advanced Video CodecFormat profile : High@L3.2Format settings : CABAC / 12 Ref FramesFormat settings, CABAC : YesFormat settings, ReFrames : 12 framesCodec ID : V_MPEG4/ISO/AVCDuration : 31 min 47 sBit rate : 2 284 kb/sWidth : 690 pixelsHeight : 568 pixelsDisplay aspect ratio : 1.296Frame rate mode : ConstantFrame rate : 25.000 FPSColor space : YUVChroma subsampling : 4:2:0Bit depth : 8 bitsScan type : ProgressiveBits/(Pixel*Frame) : 0.233Stream size : 519 MiB (80%)Writing library : x264 core 130 r2273 b3065e6Encoding settings : cabac=1 / ref=12 / deblock=1:-3:-3 / analyse=0x3:0x133 / me=umh / subme=11 / psy=1 / psy_rd=1.00:0.00 / mixed_ref=1 / me_range=48 / chroma_me=1 / trellis=2 / 8x8dct=1 / cqm=0 / deadzone=21,11 / fast_pskip=0 / chroma_qp_offset=-2 / threads=12 / lookahead_threads=3 / sliced_threads=0 / nr=0 / decimate=1 / interlaced=0 / bluray_compat=0 / constrained_intra=0 / bframes=16 / b_pyramid=2 / b_adapt=2 / b_bias=0 / direct=3 / weightb=1 / open_gop=0 / weightp=2 / keyint=250 / keyint_min=25 / scenecut=40 / intra_refresh=0 / rc=crf / mbtree=0 / crf=20.0 / qcomp=0.60 / qpmin=0 / qpmax=69 / qpstep=4 / ip_ratio=1.40 / pb_ratio=1.30 / aq=1:0.80Language : EnglishDefault : YesForced : NoColor range : LimitedColor primaries : BT.601 PALTransfer characteristics : BT.709Matrix coefficients : BT.601
Audio #1ID : 2Format : AC-3Format/Info : Audio Coding 3Commercial name : Dolby DigitalCodec ID : A_AC3Duration : 31 min 47 sBit rate mode : ConstantBit rate : 192 kb/sChannel(s) : 2 channelsChannel layout : L RSampling rate : 48.0 kHzFrame rate : 31.250 FPS (1536 SPF)Bit depth : 16 bitsCompression mode : LossyStream size : 43.7 MiB (7%)Title : VO КлерикLanguage : RussianService kind : Complete MainDefault : NoForced : No
Audio #2ID : 3Format : AC-3Format/Info : Audio Coding 3Commercial name : Dolby DigitalCodec ID : A_AC3Duration : 31 min 47 sBit rate mode : ConstantBit rate : 320 kb/sChannel(s) : 2 channelsChannel layout : L RSampling rate : 48.0 kHzFrame rate : 31.250 FPS (1536 SPF)Bit depth : 16 bitsCompression mode : LossyStream size : 72.8 MiB (11%)Language : EnglishService kind : Complete MainDefault : NoForced : No
Text #1ID : 4Format : UTF-8Codec ID : S_TEXT/UTF8Codec ID/Info : UTF-8 Plain TextTitle : Юлия2705 (madelaine)Language : RussianDefault : NoForced : No
Text #2ID : 5Format : UTF-8Codec ID : S_TEXT/UTF8Codec ID/Info : UTF-8 Plain TextLanguage : EnglishDefault : NoForced : No

Скриншот c названием фильма

Скриншоты



[chi5o.com]_t_5665946.torrent
Торрент: Зарегистрирован ·  [ 2019-01-02 14:11 ] ·  097c2250ae4b4613f78d2f1ae7b873ecd2212ad0

13 KB

Статус: проверено
Скачан: 0 раз
Размер: 649 MB
Оценка: 
(Голосов: 0)
Сказали спасибо: 0  Спасибо
Похожие темы
[Профиль]    [ЛС]
Показать сообщения:    
Ответить на тему

Текущее время: Сегодня 02:09

Часовой пояс: GMT + 7



Вы не можете начинать темы
Вы не можете отвечать на сообщения
Вы не можете редактировать свои сообщения
Вы не можете удалять свои сообщения
Вы не можете голосовать в опросах
Вы не можете прикреплять файлы к сообщениям
Вы можете скачивать файлы


Box Set 80 Smash Hits of the ’80s – VA – 2018 | Bhaijaan Elo Re (2018) Bangla Full Movie 480p HDTVRip 350MB Download *Exclusive* | Djibouti