Крайности / Extremities (Роберт М. Янг / Robert M. Young) [1986, США, триллер, BDRip-AVC] AVO (Визгунов) + Original Eng

Ответить на тему
Статистика раздачи [Обновить пиров]
Размер:  2.13 GB   |    Зарегистрирован:  20 дней   |    Скачан:  0 раз

Полного источника не было: Никогда

 
   
 
 
 
Автор Сообщение

chi5o.com

Создавать темы 02-Янв-2019 14:11

[Цитировать]

Крайности / Extremities
Страна: США
Жанр: триллер
Год выхода: 1986
Продолжительность: 01:29:26
Перевод: Авторский (одноголосый закадровый) Сергея Визгунова
Субтитры: нет
Оригинальная аудиодорожка: английский
Режиссер: Роберт М. Янг /Robert M. Young/
В ролях: Фарра Фосетт /Farrah Fawcett/, Джеймс Руссо /James Russo/, Дайана Скаруид /Diana Scarwid/, Элфри Вудард /Alfre Woodard/
Рецензия Михаила Иванова: Проникнув в дом, насильник-убийца (Руссо) считает, что имеет дело с беззащитной жертвой, но дома, как говорится, и стены помогают - маньяк сам оказался в мышеловке. Фарра Фосетт (блестяще сыгравшая эту роль) перехитрила злодея, и теперь он сам в положении жертвы. Отомстить или пожалеть? Уильям Мастросимоне сам адаптировал свою пьесу для экрана, но по мнению критиков, не все может быть перенесено на пленку. Пьесы я не видел, но фильм поставлен великолепно. Детям до 16 не рекомендуется.
Доп. информация: Источник: Torrentc из кинозала от igorella87; Визгунова оцифровал и подготовил [url=profile.php?mode=viewprofile&u=5358528]karlll[/url]
Качество видео: BDRip-AVC | Extremities 1986 1080p BDRemux ~Сэмпл~
Формат файла: MKV
Видео: MPEG4 Video (H264) 1152x624 23.976fps 2956Kbps
Аудио 1: Dolby AC3 48KHz 2ch 224Kbps - р
Аудио 2: Dolby AC3 48KHz 2ch 224Kbps - а

MediaInfo

Формат файла : MatroskaВерсия формата : Version 2Размер файла : 2,13 ГбайтПродолжительность : 1 ч. 29 м.Общий поток : 3403 Кбит/секНазвание фильма : Extremities, 1986 [KBC]Дата кодирования : UTC 2018-12-29 07:17:56Программа кодирования : mkvmerge v6.9.1 ('Blue Panther') 32bit built on Apr 18 2014 18:15:44Библиотека кодирования : libebml v1.3.0 + libmatroska v1.4.1
ВидеоИдентификатор : 1Формат файла : AVCФормат файла/Информация : Advanced Video CodecПрофиль формата : High@L3.1Параметр CABAC формата : ДаПараметр ReFrames формата : 7 кадровИдентификатор кодека : V_MPEG4/ISO/AVCПродолжительность : 1 ч. 29 м.Битрейт : 2956 Кбит/секШирина : 1152 пикселяВысота : 624 пикселяСоотношение сторон : 1,85:1Режим частоты кадров : ПостоянныйЧастота кадров : 23,976 кадра/секЦветовое пространство : YUVСубдискретизация насыщенности : 4:2:0Битовая глубина : 8 битТип развёртки : ПрогрессивнаяБит/(Пиксели*Кадры) : 0.172Размер потока : 1,80 Гбайт (85%)Заголовок : Extremities (1986)Библиотека кодирования : x264 core 152 r2851kMod ba24899Настройки программы : cabac=1 / ref=7 / deblock=1:-1:-1 / analyse=0x3:0x113 / me=umh / subme=9 / psy=1 / fade_compensate=0.00 / psy_rd=1.00:0.20 / mixed_ref=1 / me_range=24 / chroma_me=1 / trellis=2 / 8x8dct=1 / cqm=0 / deadzone=21,11 / fast_pskip=0 / chroma_qp_offset=-3 / threads=6 / lookahead_threads=1 / sliced_threads=0 / nr=0 / decimate=0 / interlaced=0 / bluray_compat=0 / constrained_intra=0 / bframes=7 / b_pyramid=2 / b_adapt=2 / b_bias=0 / direct=3 / weightb=1 / open_gop=0 / weightp=2 / keyint=250 / keyint_min=23 / scenecut=40 / intra_refresh=0 / rc_lookahead=50 / rc=2pass / mbtree=1 / bitrate=2956 / ratetol=1.0 / qcomp=0.60 / qpmin=0 / qpmax=69 / qpstep=4 / cplxblur=20.0 / qblur=0.5 / vbv_maxrate=14000 / vbv_bufsize=14000 / nal_hrd=none / filler=0 / ip_ratio=1.40 / aq=1:1.00Язык : EnglishDefault : ДаForced : Нет
Аудио #1Идентификатор : 2Формат файла : AC-3Формат файла/Информация : Audio Coding 3Расширение режима : CM (complete main)Параметр Endianness формата : BigИдентификатор кодека : A_AC3Продолжительность : 1 ч. 29 м.Вид битрейта : ПостоянныйБитрейт : 224 Кбит/секКаналы : 2 каналаРасположение каналов : Front: L RЧастота : 48,0 КГцБитовая глубина : 16 битМетод сжатия : С потерямиРазмер потока : 143 Мбайт (7%)Заголовок : ВизгуновЯзык : RussianDefault : ДаForced : Нет
Аудио #2Идентификатор : 3Формат файла : AC-3Формат файла/Информация : Audio Coding 3Расширение режима : CM (complete main)Параметр Endianness формата : BigИдентификатор кодека : A_AC3Продолжительность : 1 ч. 29 м.Вид битрейта : ПостоянныйБитрейт : 224 Кбит/секКаналы : 2 каналаРасположение каналов : Front: L RЧастота : 48,0 КГцБитовая глубина : 16 битМетод сжатия : С потерямиРазмер потока : 143 Мбайт (7%)Заголовок : engDefault : НетForced : Нет

Скриншоты

MIBD-Источник: Torrentcа

Формат файла : BDAV
Формат файла/Информация : Blu-ray Video
Размер файла : 20,5 Гбайт
Продолжительность : 1 ч. 29 м.
Режим общего битрейта : Переменный
Общий поток : 32,9 Мбит/сек
Максимальный общий битрейт : 35,5 Мбит/сек
Видео
Идентификатор : 4113 (0x1011)
Идентификатор меню : 1 (0x1)
Формат файла : AVC
Формат файла/Информация : Advanced Video Codec
Профиль формата : High@L4.1
Параметр CABAC формата : Да
Параметр ReFrames формата : 4 кадра
Идентификатор кодека : 27
Продолжительность : 1 ч. 29 м.
Вид битрейта : Постоянный
Битрейт : 30,0 Мбит/сек
Ширина : 1920 пикселей
Высота : 1080 пикселей
Соотношение сторон : 16:9
Частота кадров : 23,976 кадра/сек
Цветовое пространство : YUV
Субдискретизация насыщенности : 4:2:0
Битовая глубина : 8 бит
Тип развёртки : Прогрессивная
Бит/(Пиксели*Кадры) : 0.603
Размер потока : 18,6 Гбайт (91%)
Аудио #1
Идентификатор : 4352 (0x1100)
Идентификатор меню : 1 (0x1)
Формат файла : AC-3
Формат файла/Информация : Audio Coding 3
Расширение режима : CM (complete main)
Параметр Endianness формата : Big
Идентификатор кодека : 129
Продолжительность : 1 ч. 29 м.
Вид битрейта : Постоянный
Битрейт : 224 Кбит/сек
Каналы : 2 канала
Расположение каналов : Front: L R
Частота : 48,0 КГц
Битовая глубина : 16 бит
Метод сжатия : С потерями
Размер потока : 143 Мбайт (1%)
Аудио #2
Идентификатор : 4353 (0x1101)
Идентификатор меню : 1 (0x1)
Формат файла : DTS
Формат файла/Информация : Digital Theater Systems
Профиль формата : MA / Core
Режим смешивания : Stream extension
Идентификатор кодека : 134
Продолжительность : 1 ч. 29 м.
Вид битрейта : Переменный
Битрейт : 1558 Кбит/сек / 1510 Кбит/сек
Каналы : 2 канала
Расположение каналов : Front: L R
Частота : 48,0 КГц
Битовая глубина : 24 бит
Метод сжатия : Без потерь / Lossy
Текст
Идентификатор : 4608 (0x1200)
Идентификатор меню : 1 (0x1)
Формат файла : PGS
Идентификатор кодека : 144


[chi5o.com]_t_5666549.torrent
Торрент: Зарегистрирован ·  [ 2019-01-02 14:11 ] ·  527cb9804c0b3efd06a6cec38b4f6797ffc444c4

11 KB

Статус: проверено
Скачан: 0 раз
Размер: 2.13 GB
Оценка: 
(Голосов: 0)
Сказали спасибо: 0  Спасибо
Похожие темы
[Профиль]    [ЛС]
Показать сообщения:    
Ответить на тему

Текущее время: Сегодня 02:49

Часовой пояс: GMT + 7



Вы не можете начинать темы
Вы не можете отвечать на сообщения
Вы не можете редактировать свои сообщения
Вы не можете удалять свои сообщения
Вы не можете голосовать в опросах
Вы не можете прикреплять файлы к сообщениям
Вы можете скачивать файлы


Aventura | Controllo Appetito, Lipidi e Carboidrati | One Piece 890