Ночная смена / Næturvaktin / Night Shift / Сезон: 1 / Серии: 1-12 из 12 (Рагнар Брагасон) [2007, Исландия, Комедия, драма, DVDRip] Original + Rus Sub (Nebëhr Gudahtt)

Ответить на тему
Статистика раздачи [Обновить пиров]
Размер:  2.91 GB   |    Зарегистрирован:  1 месяц 27 дней   |    Скачан:  1 раз

Полного источника не было: 3 дня

 
   
 
 
 
Автор Сообщение

chi5o.com

Создавать темы 20-Дек-2018 00:37

[Цитировать]

Ночная смена / Næturvaktin / Night Shift
Год выхода: 2007
Страна: Исландия
Жанр: Комедия, драма
Продолжительность: ~00:25:00
Перевод: Субтитры Nebëhr Gudahtt
Режиссёр: Рагнар Брагасон
В ролях: Йоун Гнарр, Пьетюр Йоуханн Сигфуссон, Йёрюндюр Рагнарссон.
Описание: Популярный исландский сериал (IMDB) о трех работниках бензозаправочной станции в Рейкьявике. Помимо основных актеров в каждой серии как правило появляется хотя бы одна исландская кинозвезда или знаменитость, часто в роли самой себя. В продолжение были сняты сериалы "Дневная смена" (Dagvaktin) и "Тюремная смена" (Fangavaktin), а также полнометражный фильм "Бьярднфредарсон" (Bjarnfreðarson), завершающий цикл. "Смены" являются неотъемлемой частью современной исландской культуры и пользуются всенародной любовью, а люди изъясняются цитатами из сериала. Формально все это комедии, однако, как и свойственно для Исландии, не обошлось без некоторого мрачноватого подтекста, который становится все явственнее с каждым новым сезоном.
Доп. информация: Раздаваться будет недолго, поэтому интересующимся просьба поддержать раздачу.
Сэмпл: http://sendfile.su/1460376
Качество: DVDRip
Формат файла: MKV
Видео: V_MPEG4/ISO/AVC, 720x480, 16x9, 25 fps, ~1400 kb/s
Аудио: AAC, 48.0 kHz, 164 kb/s, стерео
Субтитры: SRT (русский)
Реклама: Отсутствует

Список серий

S01E01.Næturvaktin
S01E02.Næturvaktin
S01E03.Næturvaktin
S01E04.Næturvaktin
S01E05.Næturvaktin
S01E06.Næturvaktin
S01E07.Næturvaktin
S01E08.Næturvaktin
S01E09.Næturvaktin
S01E10.Næturvaktin
S01E11.Næturvaktin
S01E12.Næturvaktin

MediaInfo

General
Unique ID : 209337991408366017270816695065234671306 (0x9D7D07D66490A5908C9AC649B73886CA)
Format : Matroska
Format version : Version 4 / Version 2
File size : 298 MiB
Duration : 26 min 47 s
Overall bit rate : 1 553 kb/s
Encoded date : UTC 2018-12-08 16:49:29
Writing application : mkvmerge v18.0.0 ('Apricity') 64-bit
Writing library : libebml v1.3.5 + libmatroska v1.4.8
Video #1
ID : 1
Format : AVC
Format/Info : Advanced Video Codec
Format profile : Main@L3.1
Format settings, CABAC : Yes
Format settings, ReFrames : 4 frames
Codec ID : V_MPEG4/ISO/AVC
Duration : 26 min 47 s
Bit rate : 1 386 kb/s
Width : 720 pixels
Height : 480 pixels
Display aspect ratio : 16:9
Original display aspect ratio : 16:9
Frame rate mode : Constant
Frame rate : 25.000 FPS
Color space : YUV
Chroma subsampling : 4:2:0
Bit depth : 8 bits
Scan type : Progressive
Bits/(Pixel*Frame) : 0.160
Stream size : 266 MiB (89%)
Writing library : x264 core 148 r2708 86b7198
Encoding settings : cabac=1 / ref=2 / deblock=1:0:0 / analyse=0x1:0x111 / me=hex / subme=6 / psy=1 / psy_rd=1.00:0.00 / mixed_ref=1 / me_range=16 / chroma_me=1 / trellis=1 / 8x8dct=0 / cqm=0 / deadzone=21,11 / fast_pskip=1 / chroma_qp_offset=-2 / threads=12 / lookahead_threads=2 / sliced_threads=0 / nr=0 / decimate=1 / interlaced=0 / bluray_compat=0 / constrained_intra=0 / bframes=3 / b_pyramid=2 / b_adapt=1 / b_bias=0 / direct=1 / weightb=1 / open_gop=0 / weightp=1 / keyint=250 / keyint_min=25 / scenecut=40 / intra_refresh=0 / rc_lookahead=30 / rc=crf / mbtree=1 / crf=20.0 / qcomp=0.60 / qpmin=0 / qpmax=69 / qpstep=4 / vbv_maxrate=14000 / vbv_bufsize=14000 / crf_max=0.0 / nal_hrd=none / filler=0 / ip_ratio=1.40 / aq=1:1.00
Default : Yes
Forced : No
Color range : Limited
Color primaries : BT.601 PAL
Transfer characteristics : BT.709
Matrix coefficients : BT.601
Audio #2
ID : 2
Format : AAC
Format/Info : Advanced Audio Codec
Format profile : LC
Codec ID : A_AAC
Duration : 26 min 46 s
Bit rate : 164 kb/s
Channel(s) : 2 channels
Channel positions : Front: L R
Sampling rate : 48.0 kHz
Frame rate : 46.875 FPS (1024 spf)
Compression mode : Lossy
Stream size : 31.4 MiB (11%)
Language : Icelandic
Default : Yes
Forced : No
Text #3
ID : 3
Format : UTF-8
Codec ID : S_TEXT/UTF8
Codec ID/Info : UTF-8 Plain Text
Duration : 25 min 53 s
Bit rate : 119 b/s
Count of elements : 441
Stream size : 22.7 KiB (0%)
Language : Russian
Default : Yes
Forced : No

Скриншоты

Пример субтитров

258
00:15:26,407 --> 00:15:27,999
Сотрудник на площадке.
259
00:15:30,727 --> 00:15:32,240
Сотрудник на площадке!
260
00:15:34,407 --> 00:15:35,378
Да!
261
00:15:36,767 --> 00:15:38,041
Ты чем занят?
262
00:15:40,647 --> 00:15:45,004
Я тут снаружи... проверяю...
за зданием.
263
00:15:46,327 --> 00:15:48,761
Ты что там, спал, негодяй?
264
00:15:49,887 --> 00:15:53,323
Добрый вечер. Минутку.
265
00:15:56,327 --> 00:15:57,919
Сотрудник на площадке?
266
00:15:59,367 --> 00:16:00,322
Да?
267
00:16:02,120 --> 00:16:03,722
Где дохляк?
268
00:16:04,047 --> 00:16:06,800
Я тут его инструктирую.
269
00:16:07,927 --> 00:16:09,406
Ты - инструктируешь?
270
00:16:09,727 --> 00:16:10,955
Что за чушь!
271
00:16:11,087 --> 00:16:12,566
Скажи ему, быстро сюда.
272
00:16:12,887 --> 00:16:15,526
Ну, я это...
[url=tracker.php?g=foreign_serials&nm=N%C3%A6turvaktin]Предыдущие и альтернативные раздачи[/url]


[chi5o.com]_t_5656846.torrent
Торрент: Зарегистрирован ·  [ 2018-12-20 00:37 ] ·  089d83584c98183a62e63fd740e3cdbb47e0bfec

16 KB

Статус: проверено
Скачан: 1 раз
Размер: 2.91 GB
Оценка: 
(Голосов: 0)
Сказали спасибо: 0  Спасибо
Похожие темы
[Профиль]    [ЛС]
Показать сообщения:    
Ответить на тему

Текущее время: Сегодня 16:46

Часовой пояс: GMT + 7



Вы не можете начинать темы
Вы не можете отвечать на сообщения
Вы не можете редактировать свои сообщения
Вы не можете удалять свои сообщения
Вы не можете голосовать в опросах
Вы не можете прикреплять файлы к сообщениям
Вы можете скачивать файлы


Manifest HDTV 720p AC3 5.1 | Imagen no carga problema | Labor of Love Read Online Alexa Riley