(House) [CDR] Dyan B. - Clearly - 2006, FLAC (tracks+.cue), lossless

Ответить на тему
Статистика раздачи [Обновить пиров]
Размер:  281 MB   |    Зарегистрирован:  1 месяц 7 дней   |    Скачан:  0 раз

Полного источника не было: Никогда

 
   
 
 
 
Автор Сообщение

chi5o.com

Создавать темы 16-Дек-2018 16:14

[Цитировать]

Dyan B. - Clearly
Жанр: House
Носитель: CDR
Страна-производитель диска (релиза): Germany
Год издания: 2006
Издатель (лейбл): Re-Start
Номер по каталогу: Re-Start 001
Аудиокодек: FLAC (*.flac)
Тип рипа: tracks+.cue
Битрейт аудио: lossless
Продолжительность: 00:36:34
Источник: собственный рип
Наличие сканов в содержимом раздачи: да (кроме CD)
Треклист:
01. Clearly (Radio Version) (2:58)
02. Clearly (Sunloverz RMX Edit) (2:57)
03. Clearly (Flipside Electro Makeover RMX Edit) (3:08)
04. Clearly (Raw Shape RMX Edit) (3:10)
05. Clearly (Original Club Mix) (6:22)
06. Clearly (Sunloverz RMX) (5:37)
07. Clearly (Flipside Electro Makeover RMX) (6:17)
08. Clearly (Raw Shape RMX) (6:04)
--

Лог создания рипа

Exact Audio Copy V0.99 prebeta 5 from 4. May 2009
EAC extraction logfile from 8. December 2011, 12:19
Dyan B. / Clearly
Used drive : ASUS DRW-1814BLT Adapter: 1 ID: 0
Read mode : SecureUtilize accurate stream : YesDefeat audio cache : YesMake use of C2 pointers : No
Read offset correction : 6Overread into Lead-In and Lead-Out : NoFill up missing offset samples with silence : YesDelete leading and trailing silent blocks : NoNull samples used in CRC calculations : YesUsed interface : Native Win32 interface for Win NT & 2000Gap handling : Appended to previous track
Used output format : User Defined EncoderSelected bitrate : 1024 kBit/sQuality : HighAdd ID3 tag : NoCommand line compressor : C:\Program Files\EAC\Flac\flac.exeAdditional command line options : -8 -V -T "ARTIST=%a" -T "TITLE=%t" -T "ALBUM=%g" -T "DATE=%y" -T "TRACKNUMBER=%n" -T "GENRE=%m" -T "COMMENT=EAC FLAC -8" %s
TOC of the extracted CD
Track | Start | Length | Start sector | End sector --------------------------------------------------------- 1 | 0:00.00 | 2:58.33 | 0 | 13382 2 | 2:58.33 | 2:56.73 | 13383 | 26655 3 | 5:55.31 | 3:08.20 | 26656 | 40775 4 | 9:03.51 | 3:10.00 | 40776 | 55025 5 | 12:13.51 | 6:22.11 | 55026 | 83686 6 | 18:35.62 | 5:37.14 | 83687 | 108975 7 | 24:13.01 | 6:16.65 | 108976 | 137240 8 | 30:29.66 | 6:03.67 | 137241 | 164532
Track 1
Filename C:\01. Dyan B. - Clearly (Radio Version).wav
Pre-gap length 0:00:02.00
Peak level 100.0 % Track quality 100.0 % Test CRC 65596749 Copy CRC 65596749 Accurately ripped (confidence 1) [BEC7F541] Copy OK
Track 2
Filename C:\02. Dyan B. - Clearly (Sunloverz RMX Edit).wav
Peak level 99.8 % Track quality 99.9 % Test CRC 8FD19B56 Copy CRC 8FD19B56 Accurately ripped (confidence 1) [F92A260F] Copy OK
Track 3
Filename C:\03. Dyan B. - Clearly (Flipside Electro Makeover RMX Edit).wav
Peak level 98.1 % Track quality 99.9 % Test CRC FE3F63C8 Copy CRC FE3F63C8 Accurately ripped (confidence 1) [3B61C34E] Copy OK
Track 4
Filename C:\04. Dyan B. - Clearly (Raw Shape RMX Edit).wav
Peak level 98.8 % Track quality 100.0 % Test CRC BFD6D18B Copy CRC BFD6D18B Accurately ripped (confidence 1) [517598CD] Copy OK
Track 5
Filename C:\05. Dyan B. - Clearly (Original Club Mix).wav
Peak level 100.0 % Track quality 100.0 % Test CRC 5D7FC3F8 Copy CRC 5D7FC3F8 Accurately ripped (confidence 1) [E8E88BF9] Copy OK
Track 6
Filename C:\06. Dyan B. - Clearly (Sunloverz RMX).wav
Peak level 99.8 % Track quality 100.0 % Test CRC 5063878D Copy CRC 5063878D Accurately ripped (confidence 1) [F9938FB9] Copy OK
Track 7
Filename C:\07. Dyan B. - Clearly (Flipside Electro Makeover RMX).wav
Peak level 98.1 % Track quality 100.0 % Test CRC 53731476 Copy CRC 53731476 Accurately ripped (confidence 1) [8C8243EC] Copy OK
Track 8
Filename C:\08. Dyan B. - Clearly (Raw Shape RMX).wav
Peak level 98.8 % Track quality 100.0 % Test CRC 1E75DC2F Copy CRC 1E75DC2F Accurately ripped (confidence 1) [EAA14D6F] Copy OK
All tracks accurately ripped
No errors occurred
End of status report

Содержание индексной карты (.CUE)

REM GENRE HouseREM DATE 2006REM DISCID 5D089108REM COMMENT "ExactAudioCopy v0.99pb5"PERFORMER "Dyan B."TITLE "Clearly"FILE "01. Dyan B. - Clearly (Radio Version).wav" WAVE TRACK 01 AUDIO TITLE "Clearly (Radio Version)" PERFORMER "Dyan B." INDEX 01 00:00:00FILE "02. Dyan B. - Clearly (Sunloverz RMX Edit).wav" WAVE TRACK 02 AUDIO TITLE "Clearly (Sunloverz RMX Edit)" PERFORMER "Dyan B." INDEX 01 00:00:00FILE "03. Dyan B. - Clearly (Flipside Electro Makeover RMX Edit).wav" WAVE TRACK 03 AUDIO TITLE "Clearly (Flipside Electro Makeover RMX Edit)" PERFORMER "Dyan B." INDEX 01 00:00:00FILE "04. Dyan B. - Clearly (Raw Shape RMX Edit).wav" WAVE TRACK 04 AUDIO TITLE "Clearly (Raw Shape RMX Edit)" PERFORMER "Dyan B." INDEX 01 00:00:00FILE "05. Dyan B. - Clearly (Original Club Mix).wav" WAVE TRACK 05 AUDIO TITLE "Clearly (Original Club Mix)" PERFORMER "Dyan B." INDEX 01 00:00:00FILE "06. Dyan B. - Clearly (Sunloverz RMX).wav" WAVE TRACK 06 AUDIO TITLE "Clearly (Sunloverz RMX)" PERFORMER "Dyan B." INDEX 01 00:00:00FILE "07. Dyan B. - Clearly (Flipside Electro Makeover RMX).wav" WAVE TRACK 07 AUDIO TITLE "Clearly (Flipside Electro Makeover RMX)" PERFORMER "Dyan B." INDEX 01 00:00:00FILE "08. Dyan B. - Clearly (Raw Shape RMX).wav" WAVE TRACK 08 AUDIO TITLE "Clearly (Raw Shape RMX)" PERFORMER "Dyan B." INDEX 01 00:00:00
--


[chi5o.com]_t_5660392.torrent
Торрент: Зарегистрирован ·  [ 2018-12-16 16:14 ] ·  f600a7c30ccec3cfa0cf7b1fc4e51e25008e37c9

12 KB

Статус: проверено
Скачан: 0 раз
Размер: 281 MB
Оценка: 
(Голосов: 0)
Сказали спасибо: 0  Спасибо
Похожие темы
[Профиль]    [ЛС]
Показать сообщения:    
Ответить на тему

Текущее время: Сегодня 15:46

Часовой пояс: GMT + 7



Вы не можете начинать темы
Вы не можете отвечать на сообщения
Вы не можете редактировать свои сообщения
Вы не можете удалять свои сообщения
Вы не можете голосовать в опросах
Вы не можете прикреплять файлы к сообщениям
Вы можете скачивать файлы


A Dangerous S (2018) | Isolate Zero 100% Whey Protein Iso 900 g | 10 oz Silver Bar - 9Fine Mint - SKU #169456