Miguel - Told You So [2017, Pop / R`n`B / Soul, MasterRip, 1080p]

Ответить на тему
Статистика раздачи [Обновить пиров]
Размер:  495 MB   |    Зарегистрирован:  1 месяц 10 дней   |    Скачан:  0 раз

Полного источника не было: Никогда

 
   
 
 
 
Автор Сообщение

chi5o.com

Создавать темы 10-Дек-2018 23:40

[Цитировать]

Miguel - Told You So[img]http://i107.fastpic.ru/big/2018/1130/fb/b4ced035f9...c7d2fb.jpg[/img]Жанр: Pop / R`n`B / Soul
Продолжительность: 00:03:30
Год выхода: 2017
Описание: Исполнитель Miguel последователь музыкальных идей Michael Jackson и James Brown. Певец жанра танцевального R`n`B при помощи песен доносит до слушателей мысль о проблемах в современном обществе. Видео схожа с арт-хаусом, основная тема завуалирована оригинальными образами.
Данное творчество безусловно придется по вкусу фанатам вышеупомянутых артистов, а так привлечет внимание поклонников певца The Weeknd.
Качество: MasterRip
Разрешение видео/развертка: 1080p
Формат файла: MPEG4
Видео кодек: AVC
Аудио кодек: AAC
Видео: 1920 x 1080 (1.778) at 23.976 fps AVC at 19,4 Мбит/сек
Аудио: 2 канала, 48,0 КГц AAC at 317 Кбит/сек

Отчёт MediaInfo / BDInfo

Формат файла : MPEG-4Профиль формата : Base Media / Version 2Идентификатор кодека : mp42 (mp42/mp41)Размер файла : 495 МбайтПродолжительность : 3 м. 30 с.Режим общего битрейта : ПеременныйОбщий поток : 19,7 Мбит/сек©TIM : 01:00:00:00©TSC : 24000©TSZ : 1001
ВидеоИдентификатор : 1Формат файла : AVCФормат файла/Информация : Advanced Video CodecПрофиль формата : Main@L4.1Параметр CABAC формата : ДаПараметр ReFrames формата : 3 кадраПараметр GOP формата : M=4, N=24Идентификатор кодека : avc1Идентификатор кодека/Информация : Advanced Video CodingПродолжительность : 3 м. 30 с.Битрейт : 19,4 Мбит/секШирина : 1920 пикселейВысота : 1080 пикселейСоотношение сторон : 16:9Режим частоты кадров : ПостоянныйЧастота кадров : 23,976 (24000/1001) кадра/секСтандарт вещания : NTSCЦветовое пространство : YUVСубдискретизация насыщенности : 4:2:0Битовая глубина : 8 битТип развёртки : ПрогрессивнаяБит/(Пиксели*Кадры) : 0.389Размер потока : 487 Мбайт (98%)Язык : EnglishЦветовой диапазон : LimitedОсновные цвета : BT.709Характеристики трансфера : BT.709Коэффициенты матрицы : BT.709
АудиоИдентификатор : 2Формат файла : AACФормат файла/Информация : Advanced Audio CodecПрофиль формата : LCИдентификатор кодека : 40Продолжительность : 3 м. 30 с.Продолжительность оригинала : 3 м. 31 с.Вид битрейта : ПеременныйБитрейт : 317 Кбит/секМаксимальный битрейт : 459 Кбит/секКаналы : 2 каналаРасположение каналов : Front: L RЧастота : 48,0 КГцЧастота кадров : 46,875 кадров/сек (1024 spf)Метод сжатия : С потерямиРазмер потока : 7,98 Мбайт (2%)Размер потока оригинала : 7,98 Мбайт (2%)Язык : English


[chi5o.com]_t_5653294.torrent
Торрент: Зарегистрирован ·  [ 2018-12-10 23:40 ] ·  b057a167f902e97b4012612e98acea9e0fd14cfc

20 KB

Статус: проверено
Скачан: 0 раз
Размер: 495 MB
Оценка: 
(Голосов: 0)
Сказали спасибо: 0  Спасибо
Похожие темы
[Профиль]    [ЛС]
Показать сообщения:    
Ответить на тему

Текущее время: Сегодня 16:50

Часовой пояс: GMT + 7



Вы не можете начинать темы
Вы не можете отвечать на сообщения
Вы не можете редактировать свои сообщения
Вы не можете удалять свои сообщения
Вы не можете голосовать в опросах
Вы не можете прикреплять файлы к сообщениям
Вы можете скачивать файлы


Magnet link | Capture One Pro 6 Windows | Adjektive (Möbel, Menschen A1.1)