Мой маленький пони: Лучший подарок на свете / My Little Pony: Best Gift Ever (Джим Миллер / Jim Miller, Майк Майер / Mike Myhre) [2018, приключения, семейный, фэнтези, WEB-DLRip] VO (ALEKS KV) + Original + Sub

Ответить на тему
Статистика раздачи [Обновить пиров]
Размер:  745 MB   |    Зарегистрирован:  2 месяца 7 дней   |    Скачан:  0 раз

Полного источника не было: Никогда

 
   
 
 
 
Автор Сообщение

chi5o.com

Создавать темы 13-Ноя-2018 01:34

[Цитировать]

Мой маленький пони: Лучший подарок на свете / My Little Pony: Best Gift Ever Страна: США, Канада
Жанр: Приключения, семейный, фэнтези, мультфильм
Продолжительность: 00:44:09
Год выхода: 2018
Перевод: Одноголосый закадровый (ALEKS KV)
Русские субтитры: нет
Режиссер: Джим Миллер / Jim Miller, Майк Майер / Mike Myhre
Роли озвучивали: Тара Стронг, Эшли Болл, Андреа Либман, Кэти Уэслак, Табита Сен-Жермен, Джон де Ланси и другие
Описание: Пони готовятся к новому Дню Согревающего Очага, их семьи собираются вместе, чтобы отметить этот большой праздник. Семейство Пай прибывает в Понивилль и Пинки Пай, Флаттершай, Эпплджек, Рэрити и Рэйнбоу Дэш готовы к большому дню: но у принцессы Твайлайт Спаркл совсем нет времени на празднование! Из-за дел в школе и визита Шайнин Армора вместе с Кейденс и малышкой Фларри Харт Твайлайт начинает сильно отставать от намеченного списка дел. Она даже не успела сходить за покупками! К счастью, ее друзья готовы помочь!
[url=tracker.php?nm=Best+Gift+Ever+2018]Предыдущие и альтернативные раздачи[/url]
Рейтинг:
Качество: WEB-DLRip (Источник: Torrentc)
Формат файла: AVI
Видео: XviD, 720x400 (16:9), 23.976 fps, ~1960 kbps
Аудио 1 Rus: AC3, 48 kHz, 2 ch, 192 kbps (ALEKS KV)
Аудио 2 Eng: AC3, 48 kHz, 2 ch, 192 kbps (Original)

Скриншоты

Дополнительная информацияВнимание, данная раздача содержит эксклюзивный контент от M-KV2501. Использовать контент без баннера группы:[img]htt

ОбщееПолное имя : D:\Video\Mults\mlp.best.gift.ever.2018.web-dlrip.vo.aviФормат файла : AVIФормат файла/Информация : Audio Video InterleaveРазмер файла : 745 МбайтПродолжительность : 44 м. 9 с.Общий поток : 2359 Кбит/секПрограмма кодирования : VirtualDubMod 1.5.10.2 (build 2542/release)Библиотека кодирования : VirtualDubMod build 2542/release
ВидеоИдентификатор : 0Формат файла : MPEG-4 VisualПрофиль формата : Advanced Simple@L5Настройки формата : BVOP1 / Custom MatrixПараметр BVOP формата : 1Параметр QPel формата : НетПараметр GMC формата : Без точки переходаПараметр матрицы формата : ВыборочнаяИдентификатор кодека : XVIDИдентификатор кодека/Подсказка : XviDПродолжительность : 44 м. 9 с.Битрейт : 1960 Кбит/секШирина : 720 пикселейВысота : 400 пикселейСоотношение сторон : 16:9Частота кадров : 23,976 (24000/1001) кадра/секЦветовое пространство : YUVСубдискретизация насыщенности : 4:2:0Битовая глубина : 8 битТип развёртки : ПрогрессивнаяМетод сжатия : С потерямиБит/(Пиксели*Кадры) : 0.284Размер потока : 619 Мбайт (83%)Библиотека кодирования : XviD 1.2.1 (UTC 2008-12-04)
Аудио #1Идентификатор : 1Формат файла : AC-3Формат файла/Информация : Audio Coding 3Параметр Endianness формата : BigИдентификатор кодека : 2000Продолжительность : 44 м. 9 с.Вид битрейта : ПостоянныйБитрейт : 192 Кбит/секКаналы : 2 каналаРасположение каналов : Front: L RЧастота : 48,0 КГцЧастота кадров : 31,250 кадров/сек (1536 SPF)Битовая глубина : 16 битМетод сжатия : С потерямиРазмер потока : 60,6 Мбайт (8%)Выравнивание : Разделение по промежуткамПродолжительность промежутка : 42 мс. (1,00 видеокадр)Время предзагрузки промежутка : 500 мс.ServiceKind/String : Complete Main
Аудио #2Идентификатор : 2Формат файла : AC-3Формат файла/Информация : Audio Coding 3Параметр Endianness формата : BigИдентификатор кодека : 2000Продолжительность : 44 м. 9 с.Вид битрейта : ПостоянныйБитрейт : 192 Кбит/секКаналы : 2 каналаРасположение каналов : Front: L RЧастота : 48,0 КГцЧастота кадров : 31,250 кадров/сек (1536 SPF)Битовая глубина : 16 битМетод сжатия : С потерямиРазмер потока : 60,6 Мбайт (8%)Выравнивание : Разделение по промежуткамПродолжительность промежутка : 42 мс. (1,00 видеокадр)Время предзагрузки промежутка : 500 мс.ServiceKind/String : Complete Main


[chi5o.com]_t_5640569.torrent
Торрент: Зарегистрирован ·  [ 2018-11-13 01:34 ] ·  b9e42a9362b668b40a2befdd76a30b2c9d0c0d6e

15 KB

Статус: проверено
Скачан: 0 раз
Размер: 745 MB
Оценка: 
(Голосов: 0)
Сказали спасибо: 0  Спасибо
Похожие темы
[Профиль]    [ЛС]
Показать сообщения:    
Ответить на тему

Текущее время: Сегодня 20:56

Часовой пояс: GMT + 7



Вы не можете начинать темы
Вы не можете отвечать на сообщения
Вы не можете редактировать свои сообщения
Вы не можете удалять свои сообщения
Вы не можете голосовать в опросах
Вы не можете прикреплять файлы к сообщениям
Вы можете скачивать файлы


VJ On The Scene | Top sữa bột nhập khẩu được ưa chuộng nhất tại TpHCM | Playstation Product Life Cycle