Рэмбо: Спасение / Rambo: The Rescue (Чарльз Николс / Charles A. Nichols, Джон Кимболл / John Kimball) [1986, США, мультфильм, боевик, VHSRip] VO + Fin hardsub

Ответить на тему
Статистика раздачи [Обновить пиров]
Размер:  3.69 GB   |    Зарегистрирован:  2 месяца 24 дня   |    Скачан:  0 раз

Полного источника не было: Никогда

 
   
 
 
 
Автор Сообщение

chi5o.com

Создавать темы 27-Окт-2018 20:31

[Цитировать]

Рэмбо: Спасение / Rambo: The Rescue
[img=right]http://i5.imageban.ru/out/2018/10/21/7eaf4f1b00450...68e10c.jpg[/img]
Страна: США
Жанр: Мультфильм, боевик
Продолжительность: 01:20:02
Год выхода: 1986
Перевод: Одноголосый закадровый (неизвестный) VHS
Русские субтитры: нет-Режиссёр: Чарльз Николс / Charles A. Nichols, Джон Кимболл / John Kimball
Описание: Это пилотная серия мультсериала Rambo and the Forces of Freedom, представляющая собой компиляцию нескольких серий в один полнометражный мультфильм. Мультсериал основан на одноимённом фильме с Сильвестером Сталлоне в главной роли, где он выступает в роли борца за свободу Джона Рэмбо. На сей раз Рэмбо часть элитного подразделения под названием Force of Freedom (Сила Свободы). Путешествуя с миссиями по всему миру, он борется против злобной организации S.A.V.A.G.E. (Secret Administrators of Vengeance, Anarchy and Global Extortion), во главе с генералом Ворхоком, стремящейся поработить весь мир.
Хотя в мультфильме и присутствует масса драк и перестрелок, вы не увидите явных сцен насилия или кровопролития. Рэмбо применяет грубую силу лишь как последнее средство, больше полагаясь на хитрость и ловкость, чтобы одолеть своих противников. © Vinlan--Благодарности:
  • Спасибо Vinlan за предоставленную кассету для оцифровки
-Семпл: http://yadi.sk/i/A_npiDGcOPGScw
Качество: VHSRip
Формат файла: MKV
Видео: PAL 4:3 (720x576), 25 fps, MPEG-2, ~6000 kbps, 0.579 bit/pixel
Аудио #1: [img]http://i6.imageban.ru/out/2018/10/03/62058c99bfaa3...39a18b.png[/img] Русский, 48 KHz, AC3, 1 ch, 192 Kbps
Аудио #2: [img]http://i6.imageban.ru/out/2018/10/03/62058c99bfaa3...39a18b.png[/img] Русский, 48 KHz, FLAC, 1 ch, 406 Kbps
Субтитры: Hardsub (вшитые) финские

MediaInfo

GeneralUnique ID : 39840181657374639117025290425907630885 (0x1DF8F09C43330D23BC52C4DC34855325)Complete name : Rambo - The Rescue (1986) VHSRip.mkvFormat : MatroskaFormat version : Version 4File size : 3.69 GiBDuration : 1 h 20 minOverall bit rate mode : VariableOverall bit rate : 6 601 kb/sEncoded date : UTC 2018-10-21 07:50:19Writing application : mkvmerge v25.0.0 ('Prog Noir') 64-bitWriting library : libebml v1.3.6 + libmatroska v1.4.9
VideoID : 1Format : MPEG VideoFormat version : Version 2Format profile : Main@MainFormat settings : BVOPFormat settings, BVOP : YesFormat settings, Matrix : DefaultFormat settings, GOP : VariableFormat settings, picture st : FrameCodec ID : V_MPEG2Codec ID/Info : MPEG 1 or 2 VideoDuration : 1 h 20 minBit rate mode : ConstantBit rate : 6 000 kb/sWidth : 720 pixelsHeight : 576 pixelsDisplay aspect ratio : 4:3Frame rate mode : ConstantFrame rate : 25.000 FPSStandard : PALColor space : YUVChroma subsampling : 4:2:0Bit depth : 8 bitsScan type : InterlacedScan order : Top Field FirstCompression mode : LossyBits/(Pixel*Frame) : 0.579Time code of first frame : 00:00:00:00Time code source : Group of pictures headerStream size : 3.35 GiB (91%)Default : YesForced : No
Audio #1ID : 2Format : AC-3Format/Info : Audio Coding 3Commercial name : Dolby DigitalCodec ID : A_AC3Duration : 1 h 20 minBit rate mode : ConstantBit rate : 192 kb/sChannel(s) : 1 channelChannel layout : CSampling rate : 48.0 kHzFrame rate : 31.250 FPS (1536 SPF)Bit depth : 16 bitsCompression mode : LossyStream size : 110 MiB (3%)Title : VO (Неизвестный, VHS) AC3 192kbpsLanguage : RussianService kind : Complete MainDefault : YesForced : No
Audio #2ID : 3Format : FLACFormat/Info : Free Lossless Audio CodecCodec ID : A_FLACDuration : 1 h 20 minBit rate mode : VariableBit rate : 406 kb/sChannel(s) : 1 channelChannel layout : CSampling rate : 48.0 kHzFrame rate : 41.667 FPS (1152 SPF)Bit depth : 16 bitsCompression mode : LosslessStream size : 233 MiB (6%)Title : VO (Неизвестный, VHS) FLACWriting library : libFLAC 1.0.25 (UTC 2007-09-17)Language : RussianDefault : NoForced : No


[chi5o.com]_t_5632400.torrent
Торрент: Зарегистрирован ·  [ 2018-10-27 20:30 ] ·  38164f3578c212418017bcc7fd74d6c624561299

19 KB

Статус: проверено
Скачан: 0 раз
Размер: 3.69 GB
Оценка: 
(Голосов: 0)
Сказали спасибо: 0  Спасибо
Похожие темы
[Профиль]    [ЛС]
Показать сообщения:    
Ответить на тему

Текущее время: Сегодня 20:51

Часовой пояс: GMT + 7



Вы не можете начинать темы
Вы не можете отвечать на сообщения
Вы не можете редактировать свои сообщения
Вы не можете удалять свои сообщения
Вы не можете голосовать в опросах
Вы не можете прикреплять файлы к сообщениям
Вы можете скачивать файлы


Shikii no Juunin | 4x Winterreifen 205/55 R16 91H Goodride SW 608 | One Piece 63