Скуби Ду и Призрак-гурман / Scooby-Doo! and the Gourmet Ghost (Даг Мерфи / Doug Murphy) [2018, США, Мультфильм, фэнтези, криминал, приключения, WEB-DLRip] MVO

Ответить на тему
Статистика раздачи [Обновить пиров]
Размер:  1.37 GB   |    Зарегистрирован:  3 месяца 7 дней   |    Скачан:  0 раз

Полного источника не было: Никогда

 
   
 
 
 
Автор Сообщение

chi5o.com

Создавать темы 13-Окт-2018 19:14

[Цитировать]

Скуби Ду и Призрак-гурман / Scooby-Doo! and the Gourmet Ghost
[img=right]http://a.radikal.ru/a18/1810/35/16f6fa9dd465.png[/img]
Страна: США
Студия: Hanna-Barbera Productions, Warner Bros. Animation
Жанр: Мультфильм, фэнтези, криминал, приключения
Продолжительность: 01:17:14
Год выхода: 2018
Перевод: Любительский (многоголосый закадровый) | Колобок
Русские субтитры: нет
Режиссёр: Даг Мерфи / Doug Murphy
Роли озвучивали: Джада Де Лаурентиис, Бобби Флей, Грэй ДеЛисл, Мэттью Лиллард, Кейт Микуччи, Фрэнк Уэлкер
Описание: Скуби Ду и его друзья отправляются отдохнуть к дальнему родственнику Фреда - Бобби Флэю, который является известнейшим шеф-поваром и как раз собирается открыть новый кулинарный курорт на месте старой таверны, принадлежавшей его предку - шеф-повару Эдварду Дюфле, которого погубил некий Красный Призрак. Спустя два с половиной столетия зловещая легенда вновь напоминает о себе.-| IMDb 7.2 | КиноПоиск | Cэмпл |
- За работу со звуком Огромное спасибо Нордер-Качество: WEB-DLRip (Источник: Torrentc WEB-DL 1080p, за который спасибо [url=profile.php?mode=viewprofile&u=893523]Shellters-bob[/url])
Формат файла: AVI
Видео: 720x400 (1.80:1), 23.976 fps, XviD build 67 ~1944 kbps avg, 0.282 bit/pixel
Аудио 1: 48 kHz, AC3 Dolby Digital, 2/0 (L,R) ch, ~192 kbps | Любительский многоголосый (Колобок)
Аудио 2: 48 kHz, AC3 Dolby Digital, 3/2 (L,C,R,l,r) + LFE ch, ~384 kbps | Английский
Субтитры: Английские (softsub (SRT) - отдельно

Подробные технические данные

ОбщееПолное имя : C:\ScoobyDoo.i.PrizrakGurman.2018.WEBDLRip.aviФормат файла : AVIФормат файла/Информация : Audio Video InterleaveРазмер файла : 1,37 ГбайтПродолжительность : 1 ч. 17 м.Общий поток : 2534 Кбит/секПрограмма кодирования : VirtualDubMod 1.5.10.2 (build 2542/release)Библиотека кодирования : VirtualDubMod build 2542/release
ВидеоИдентификатор : 0Формат файла : MPEG-4 VisualПрофиль формата : Advanced Simple@L5Настройки формата : BVOP2Параметр BVOP формата : 2Параметр QPel формата : НетПараметр GMC формата : Без точки переходаПараметр матрицы формата : Default (MPEG)Идентификатор кодека : XVIDИдентификатор кодека/Подсказка : XviDПродолжительность : 1 ч. 17 м.Битрейт : 1944 Кбит/секШирина : 720 пикселейВысота : 400 пикселейСоотношение сторон : 16:9Частота кадров : 23,976 (24000/1001) кадра/секЦветовое пространство : YUVСубдискретизация насыщенности : 4:2:0Битовая глубина : 8 битТип развёртки : ПрогрессивнаяМетод сжатия : С потерямиБит/(Пиксели*Кадры) : 0.282Размер потока : 1,05 Гбайт (77%)Библиотека кодирования : XviD 67
Аудио #1Идентификатор : 1Формат файла : AC-3Формат файла/Информация : Audio Coding 3Идентификатор кодека : 2000Продолжительность : 1 ч. 17 м.Вид битрейта : ПостоянныйБитрейт : 192 Кбит/секКаналы : 2 каналаРасположение каналов : Front: L RЧастота : 48,0 КГцЧастота кадров : 31,250 кадров/сек (1536 SPF)Битовая глубина : 16 битМетод сжатия : С потерямиРазмер потока : 106 Мбайт (8%)Выравнивание : Разделение по промежуткамПродолжительность промежутка : 42 мс. (1,00 видеокадр)Время предзагрузки промежутка : 500 мс.Заголовок : Russian (MVO Колобок)ServiceKind/String : Complete Main
Аудио #2Идентификатор : 2Формат файла : AC-3Формат файла/Информация : Audio Coding 3Идентификатор кодека : 2000Продолжительность : 1 ч. 17 м.Вид битрейта : ПостоянныйБитрейт : 384 Кбит/секКаналы : 6 каналовРасположение каналов : Front: L C R, Side: L R, LFEЧастота : 48,0 КГцЧастота кадров : 31,250 кадров/сек (1536 SPF)Битовая глубина : 16 битМетод сжатия : С потерямиРазмер потока : 212 Мбайт (15%)Выравнивание : Разделение по промежуткамПродолжительность промежутка : 42 мс. (1,00 видеокадр)Время предзагрузки промежутка : 500 мс.ServiceKind/String : Complete Main


[chi5o.com]_t_5624260.torrent
Торрент: Зарегистрирован ·  [ 2018-10-13 19:13 ] ·  b35fd35914bdf0c3fcebd498cb19318456d0f283

14 KB

Статус: проверено
Скачан: 0 раз
Размер: 1.37 GB
Оценка: 
(Голосов: 0)
Сказали спасибо: 0  Спасибо
Похожие темы
[Профиль]    [ЛС]
Показать сообщения:    
Ответить на тему

Текущее время: Сегодня 20:18

Часовой пояс: GMT + 7



Вы не можете начинать темы
Вы не можете отвечать на сообщения
Вы не можете редактировать свои сообщения
Вы не можете удалять свои сообщения
Вы не можете голосовать в опросах
Вы не можете прикреплять файлы к сообщениям
Вы можете скачивать файлы


Baixar APK | Professional WordPress Plugin Development | Milf in Time [v.0.0.7f Rus / v.0.0.8 Eng + Walkthrough] (2018) (Rus/Eng) [Ren'Py] [MacOS] [Android]