Мой маленький пони. Девочки из Эквестрии - Американские горки дружбы / My Little Pony: Equestria Girls - Rollercoaster of Friendship (Ishi Rudell, Katrina Hadley) [2018, приключения, семейный, фэнтези, WEBRip] Dub (SDI Media Russia) + VO (ALEKS KV)

Ответить на тему
Статистика раздачи [Обновить пиров]
Размер:  746 MB   |    Зарегистрирован:  3 месяца 20 дней   |    Скачан:  0 раз

Полного источника не было: Никогда

 
   
 
 
 
Автор Сообщение

chi5o.com

Создавать темы 30-Сен-2018 16:02

[Цитировать]

Мой маленький пони. Девочки из Эквестрии - Американские горки дружбы / My Little Pony: Equestria Girls - Rollercoaster of Friendship Страна: США, Канада
Жанр: Приключения, семейный, фэнтези, мультфильм
Продолжительность: 00:44:25
Год выхода: 2018
Перевод: Профессиональный (дублированный) (SDI Media Russia) (по заказу Hasbro Studios)
Русские субтитры: нет
Режиссер: Иши Руделл, Катрина Хадли / Ishi Rudell, Katrina Hadley
Роли озвучивали: Тара Стронг, Эшли Болл, Андреа Либман, Табита Сен-Жермен, Теган Мосс, Ребекка Шойкет и другие
Описание: В этом специальном выпуске Рэрити неожиданно получает работу модельера, чтобы подготовить парадное шоу перед торжественным открытием тематического парка "Эквестрия Лэнд" под руководством знаменитой Виньетт Валенсии. Однако это ставит под угрозу ее дружбу с Эпплджек и они должны как можно скорее решить свои разногласия, ведь выясняется, что их общие друзья стали таинственным образом исчезать.
[url=tracker.php?nm=Equestria+Girls+Rollercoaster+Friendship]Предыдущие и альтернативные раздачи[/url]
Рейтинг: [img]http://cdn4.iconfinder.com/data/icons/socialmediaicons_v120/48/imdb.png[/img]
Качество: WEBRip (Источник: Torrentc)
Формат файла: AVI
Видео: XVID, 720x400 (16:9), 29.970 fps, ~1945 kbps
Аудио Rus: AC3, 48 kHz, 2 ch, 192 kbps (SDI Media Russia)
Аудио Eng: AC3, 48 kHz, 2 ch, 192 kbps (Original)

Скриншоты

Дополнительная информация

В раздаче находится профессиональный дубляж студии SDI Media Russia и оригинальная аудиодорожка. Данный рип подходит для просмотра на телевизорах и бытовых DVD-плеерах с поддержкой XviD. На трекере существуют раздачи и других специальных выпусков [url=tracker.php?nm=Equestria+Girls+Specials]Equestria Girls Specials[/url] и [url=tracker.php?nm=Equestria+Girls+Forgotten+Friendship]Forgotten Friendship[/url].

Подробные технические данные

ОбщееПолное имя : D:\Video\Mults\mlp.egs.rollercoaster.of.friendship.2018.webrip.aviФормат файла : AVIФормат файла/Информация : Audio Video InterleaveРазмер файла : 746 МбайтПродолжительность : 44 м. 25 с.Общий поток : 2347 Кбит/секПрограмма кодирования : VirtualDubMod 1.5.10.2 (build 2542/release)Библиотека кодирования : VirtualDubMod build 2542/release
ВидеоИдентификатор : 0Формат файла : MPEG-4 VisualПрофиль формата : Advanced Simple@L5Настройки формата : BVOP1 / Custom MatrixПараметр BVOP формата : 1Параметр QPel формата : НетПараметр GMC формата : Без точки переходаПараметр матрицы формата : ВыборочнаяИдентификатор кодека : XVIDИдентификатор кодека/Подсказка : XviDПродолжительность : 44 м. 25 с.Битрейт : 1945 Кбит/секШирина : 720 пикселейВысота : 400 пикселейСоотношение сторон : 16:9Частота кадров : 29,970 (30000/1001) кадров/секЦветовое пространство : YUVСубдискретизация насыщенности : 4:2:0Битовая глубина : 8 битТип развёртки : ПрогрессивнаяМетод сжатия : С потерямиБит/(Пиксели*Кадры) : 0.225Размер потока : 618 Мбайт (83%)Библиотека кодирования : XviD 1.2.1 (UTC 2008-12-04)
Аудио #1Идентификатор : 1Формат файла : AC-3Формат файла/Информация : Audio Coding 3Параметр Endianness формата : BigИдентификатор кодека : 2000Продолжительность : 44 м. 25 с.Вид битрейта : ПостоянныйБитрейт : 192 Кбит/секКаналы : 2 каналаРасположение каналов : Front: L RЧастота : 48,0 КГцЧастота кадров : 31,250 кадров/сек (1536 SPF)Битовая глубина : 16 битМетод сжатия : С потерямиРазмер потока : 61,0 Мбайт (8%)Выравнивание : Разделение по промежуткамПродолжительность промежутка : 33 мс. (1,00 видеокадр)Время предзагрузки промежутка : 500 мс.ServiceKind/String : Complete Main
Аудио #2Идентификатор : 2Формат файла : AC-3Формат файла/Информация : Audio Coding 3Параметр Endianness формата : BigИдентификатор кодека : 2000Продолжительность : 44 м. 25 с.Вид битрейта : ПостоянныйБитрейт : 192 Кбит/секКаналы : 2 каналаРасположение каналов : Front: L RЧастота : 48,0 КГцЧастота кадров : 31,250 кадров/сек (1536 SPF)Битовая глубина : 16 битМетод сжатия : С потерямиРазмер потока : 61,0 Мбайт (8%)Выравнивание : Разделение по промежуткамПродолжительность промежутка : 33 мс. (1,00 видеокадр)Время предзагрузки промежутка : 500 мс.ServiceKind/String : Complete Main


[chi5o.com]_t_5620866.torrent
Торрент: Зарегистрирован ·  [ 2018-09-30 16:02 ] ·  e5b161d199c0f31a0c8e36e0b0fa1191e8497b01

15 KB

Статус: проверено
Скачан: 0 раз
Размер: 746 MB
Оценка: 
(Голосов: 0)
Сказали спасибо: 0  Спасибо
Похожие темы
[Профиль]    [ЛС]
Показать сообщения:    
Ответить на тему

Текущее время: Сегодня 20:45

Часовой пояс: GMT + 7



Вы не можете начинать темы
Вы не можете отвечать на сообщения
Вы не можете редактировать свои сообщения
Вы не можете удалять свои сообщения
Вы не можете голосовать в опросах
Вы не можете прикреплять файлы к сообщениям
Вы можете скачивать файлы


the pink painter show | Ir al listado de capitulos | Adidas X