Балто / Balto (Саймон Уэллс / Simon Wells) [1995, США, мультфильм, драма, приключения, семейный, история, HDTVRip] DUB (ОРТ / Первый Канал) + MVO (СТС) + MVO (Россия) + MVO (Интер) + AVO (Живов) + VO (Бойков) + VO (Ошурков)

Ответить на тему
Статистика раздачи [Обновить пиров]
Размер:  1.83 GB   |    Зарегистрирован:  1 год 10 месяцев   |    Скачан:  1 раз

Полного источника не было: 2 месяца 7 дней

 
   
 
 
 
Автор Сообщение

chi5o.com

Создавать темы 12-Мар-2017 10:07

[Цитировать]

Балто / Balto-В холодном арктическом городке не было места для бездомного пса, пока не пришло время для чуда.
Теперь только Балто, преодолев стужу и лёд, способен спасти девочку.
Отважный и находчивый пёс, вместе со своими друзьями он отправился навстречу приключениям, чтобы стать героем.
- Год выхода: 1995
Страна: США
Жанр: мультфильм, драма, приключения, семейный, история
Продолжительность: 01:17:34
Перевод: Профессиональный (дублированный) - ОРТ / Первый Канал
Перевод 2: Профессиональный (многоголосый закадровый) - СТС
Перевод 3: Профессиональный (многоголосый закадровый) - Россия
Перевод 4: Профессиональный (многоголосый закадровый) - Интер
Перевод 5: Авторский (одноголосый закадровый) - Юрий Живов
Перевод 6: Одноголосый закадровый - Евгений Бойков (VHS)
Перевод 7: Одноголосый закадровый - Максим Ошурков (VHS)
Cубтитры: нет
Режиссер: Саймон Уэллс / Simon Wells
В ролях: Кевин Бейкон (Balto), Боб Хоскинс (Boris the Goose), Бриджит Фонда (Jenna), Джим Каммингс (Steele the Sled Dog), Фил Коллинз (Muk and Luk), Джей Эйнджел (Nikki), Дэнни Манн (Kaltag), Робби Рист (Star), Джульетт Брюэр (Rosy), Сандра Дикинсон (Sylvie / Dixie)-Мировая премьера: 22 декабря 1995-Описание: Наполовину лайка, наполовину волк, Балто и сам не знает кто он такой на самом деле. Всеми гонимый бродяга в ледяной пустыне Аляски. Только его друзья русский полярный гусь Борис, медвежата Мак и Лак и красавица-лайка Дженна уверены, что хотя он и не такой как все, но в его груди бьется благородное сердце. Однажды случается несчастье. Эпидемия дифтерии охватила детей небольшого поселка, а свирепая вьюга сделала непроходимыми все дороги. Лишь собачья упряжка может преодолеть шестьсот миль через ослепляющий арктический шторм и привезти спасительное лекарство. Но собаки сбились с дороги где-то на замерзших просторах. Теперь только Балто может найти упряжку и спасти детей, а заодно стать героем и настоящей легендой!-Источник: torrentc видео: Balto (1995) 720p HDTVRip x264 [Dual Audio] [Hindi 2.0 - English DD 5.1] - LOKI - M2Tv-Огромная благодарность:
[url=profile.php?mode=viewprofile&u=18672992]Haos-22[/url] - собственная запись дубляжа ОРТ с Первого Канала в 2003 году через видеомагнитофон и оцифровка с видеокассеты.
[url=profile.php?mode=viewprofile&u=289333]wwane[/url] - собственная запись перевода с телеканала СТС через спутник.
[url=profile.php?mode=viewprofile&u=913162]Dark Kotik[/url] - собственная запись перевода с телеканала Россия через спутник.
[url=profile.php?mode=viewprofile&u=13813236]wm89[/url] - собственная оцифровка Живова со своей видеокассеты.
[url=profile.php?mode=viewprofile&u=5514906]I_Am_Hell[/url] - собственная оцифровка Бойкова со своей видеокассеты.
[url=profile.php?mode=viewprofile&u=1480362]vr666[/url] - собственная оцифровка Ошуркова со своей видеокассеты.
[url=profile.php?mode=viewprofile&u=20398762]JUSTKANT[/url] - синхронизация всех переводов.-Данные переводы на трекере появляются впервые.
Сразу хочу предупредить: качество звука в дубляже не очень хорошее, но более лучшего по качеству найти пока не удалось.-На русский язык фильм озвучен телекомпанией Шестой канал - Санкт-Петербург по заказу СТС в 1999 году.
Текст читают Геннадий Богачёв, Елена Шульман, Вадим Гущин, Александра Кожевникова и Станислав Концевич.
На русский язык фильм озвучен по заказу телеканала Россия в 2006 году.
Текст читают Александр Груздев, Ольга Голованова, Дмитрий Филимонов и др.-
MPAA: G - Нет возрастных ограничений-Качество видео: HDTVRip
Формат файла: AVI -> //Сэмпл//
Видео: XviD, 720x400 (16:9), 23.976 fps, 2015 kbps avg
Аудио:
1 - 48 khz, AC3 Dolby Digital, 2/0 (L,R) ch, ~192 kbps [ОРТ / Первый Канал] VHSRip
2 - 48 khz, AC3 Dolby Digital, 2/0 (L,R) ch, ~192 kbps [СТС] SATRip
3 - 48 khz, AC3 Dolby Digital, 2/0 (L,R) ch, ~192 kbps [Россия] SATRip
4 - 48 khz, AC3 Dolby Digital, 2/0 (L,R) ch, ~192 kbps [Интер] VHSRip отдельным файлом
5 - 48 khz, AC3 Dolby Digital, 2/0 (L,R) ch, ~192 kbps [Живов] VHSRip отдельным файлом
6 - 48 khz, AC3 Dolby Digital, 2/0 (L,R) ch, ~192 kbps [Бойков] VHSRip отдельным файлом
7 - 48 khz, AC3 Dolby Digital, 2/0 (L,R) ch, ~192 kbps [Ошурков] VHSRip отдельным файлом-Обновление релиза от 12.02.2016. Причина:
Добавлен в раздачу ещё один раритетный для трекера перевод - дубляж с телеканала ОРТ, он же Первый Канал.
Просьба перескачать торрент!

MediaInfo

General
Complete name : I:\Торрент Файлы\Будущие ы на Трекере\1.35 - 1.46 и более гб\Балто\Балто (ОРТ + СТС + Россия).avi
Format : AVI
Format/Info : Audio Video Interleave
File size : 1.41 GiB
Duration : 1h 17mn
Overall bit rate : 2 610 Kbps
Writing application : VirtualDubMod 1.5.10.3 | www.virtualdub-fr.org || (build 2550/release)
Writing library : VirtualDubMod build 2550/release
Video
ID : 0
Format : MPEG-4 Visual
Format profile : Advanced Simple@L5
Format settings, BVOP : 1
Format settings, QPel : No
Format settings, GMC : No warppoints
Format settings, Matrix : Custom
Codec ID : XVID
Codec ID/Hint : XviD
Duration : 1h 17mn
Bit rate : 2 015 Kbps
Width : 720 pixels
Height : 400 pixels
Display aspect ratio : 16:9
Frame rate : 23.976 (23976/1000) fps
Color space : YUV
Chroma subsampling : 4:2:0
Bit depth : 8 bits
Scan type : Progressive
Compression mode : Lossy
Bits/(Pixel*Frame) : 0.292
Stream size : 1.09 GiB (77%)
Writing library : XviD 1.2.1 (UTC 2008-12-04)
Audio #1
ID : 1
Format : AC-3
Format/Info : Audio Coding 3
Mode extension : CM (complete main)
Format settings, Endianness : Big
Codec ID : 2000
Duration : 1h 17mn
Bit rate mode : Constant
Bit rate : 192 Kbps
Channel(s) : 2 channels
Channel positions : Front: L R
Sampling rate : 48.0 KHz
Frame rate : 31.250 fps (1536 spf)
Compression mode : Lossy
Stream size : 107 MiB (7%)
Alignment : Split accross interleaves
Interleave, duration : 42 ms (1.00 video frame)
Interleave, preload duratio : 500 ms
Title : ОРТ (Дубляж - Владимир Вихров, Людмила Гнилова, Ольга Гаспарова и др.)
Audio #2
ID : 2
Format : AC-3
Format/Info : Audio Coding 3
Mode extension : CM (complete main)
Format settings, Endianness : Big
Codec ID : 2000
Duration : 1h 17mn
Bit rate mode : Constant
Bit rate : 192 Kbps
Channel(s) : 2 channels
Channel positions : Front: L R
Sampling rate : 48.0 KHz
Frame rate : 31.250 fps (1536 spf)
Compression mode : Lossy
Stream size : 107 MiB (7%)
Alignment : Split accross interleaves
Interleave, duration : 42 ms (1.00 video frame)
Interleave, preload duratio : 500 ms
Title : СТС (Геннадий Богачёв, Елена Шульман, Вадим Гущин, Александра Кожевникова и Станислав Концевич)
Audio #3
ID : 3
Format : AC-3
Format/Info : Audio Coding 3
Mode extension : CM (complete main)
Format settings, Endianness : Big
Codec ID : 2000
Duration : 1h 17mn
Bit rate mode : Constant
Bit rate : 192 Kbps
Channel(s) : 2 channels
Channel positions : Front: L R
Sampling rate : 48.0 KHz
Frame rate : 31.250 fps (1536 spf)
Compression mode : Lossy
Stream size : 107 MiB (7%)
Alignment : Split accross interleaves
Interleave, duration : 42 ms (1.00 video frame)
Interleave, preload duratio : 500 ms
Title : Россия (Александр Груздев, Ольга Голованова, Дмитрий Филимонов и др.)

Скриншот c названием фильма

Скриншоты



[chi5o.com]_t_4936251.torrent
Торрент: Зарегистрирован ·  [ 2017-03-12 09:54 ] ·  e0850eedc6414fae82a81fd9606678e3839e37a1

19 KB

Статус: проверено
Скачан: 1 раз
Размер: 1.83 GB
Оценка: 
(Голосов: 1)
Сказали спасибо: 1  Спасибо   (список)
Похожие темы
[Профиль]    [ЛС]

chi5o.com

Создавать темы 30-Сен-2018 03:13 (спустя 1 год 6 месяцев)

[Цитировать]

Неужели никто никогда не раздавал мультик?
[Профиль]    [ЛС]
Показать сообщения:    
Ответить на тему

Текущее время: Сегодня 20:12

Часовой пояс: GMT + 7



Вы не можете начинать темы
Вы не можете отвечать на сообщения
Вы не можете редактировать свои сообщения
Вы не можете удалять свои сообщения
Вы не можете голосовать в опросах
Вы не можете прикреплять файлы к сообщениям
Вы можете скачивать файлы


Eps16 Psych - Season 3 | Comedy(2558) | Along With The Gods The Last 49 Daysver online