Бабар - король слонов / Babar: The Movie (Алан Банс / Alan Bunce) [1989, Канада, Франция, Мультфильм, DVDRip] AVO Виктор Махонько

Ответить на тему
Статистика раздачи [Обновить пиров]
Размер:  1.37 GB   |    Зарегистрирован:  3 месяца 21 день   |    Скачан:  0 раз

Полного источника не было: Никогда

 
   
 
 
 
Автор Сообщение

chi5o.com

Создавать темы 29-Сен-2018 20:03

[Цитировать]

Бабар - король слонов / Babar: The Movie
[img=right]http://i4.imageban.ru/out/2018/09/29/e8610603406a6...82e9a5.jpg[/img]
Страна: Канада, Франция
Жанр: Мультфильм
Продолжительность: 01:15:58
Год выхода: 1989
Перевод: Авторский (одноголосый закадровый) Виктор Махонько
Русские субтитры: нет
Режиссёр: Алан Банс / Alan Bunce
Роли озвучивали: Гордон Пинсент, Элизабет Ханна, Лиза Бойнтон, Марша Моро,
Bobby Becken, Амос Кроули, Гэвин Маграт, Сара Полли, Стивен Уйметт, Крис Уиггинс
Описание: Пожилой слон Бабар рассказывает своим двум детям историю первых нескольких дней
своего правления в качестве короля слонов.
Доп. информация: Дорожка с В. Махонько синхронизирована и наложена ale_x2008 при помощи Sony Vegas и
VirtualDubMod.
За оцифрованную с VHS дорожку благодарим - RoxMarty


Качество: DVDRip
Формат файла: AVI
Видео: XviD build 73, 640x480 (1.33:1), 23.976 fps, 2190 kbps avg, 0.3 bit/pixel
Аудио: AC3 Dolby Digital, 48000Hz 2/0 (L,R) ch (mono), 192 kbps avg
Аудио 2: 48 kHz, AC3 Dolby Digital, 2/0 (L,R) ch, ~192 kbps
Субтитры: отсутствуют

Подробные технические данные

Бабар - король слонов - Babar The Movie (by ale_x2008).aviFormat : AVIFormat/Info : Audio Video InterleaveFile size : 1.37 GiBDuration : 1 h 15 minOverall bit rate : 2 589 kb/sMovie name : Бабар - король слонов - Babar The Movie (by ale_x2008)Director : by ale_X2008Writing application : VirtualDubMod 1.5.10.2 (build 2540/release)Copyright : Edich2Comment : Torrentc
VideoID : 0Format : MPEG-4 VisualFormat profile : Advanced Simple@L5Format settings : BVOP2 / Custom MatrixFormat settings, BVOP : 2Format settings, QPel : NoFormat settings, GMC : No warppointsFormat settings, Matrix : CustomCodec ID : XVIDCodec ID/Hint : XviDDuration : 1 h 15 minBit rate : 2 191 kb/sWidth : 640 pixelsHeight : 480 pixelsDisplay aspect ratio : 4:3Frame rate : 23.976 (24000/1001) FPSColor space : YUVChroma subsampling : 4:2:0Bit depth : 8 bitsScan type : ProgressiveCompression mode : LossyBits/(Pixel*Frame) : 0.297Stream size : 1.16 GiB (85%)Writing library : XviD 73
Audio #1ID : 1Format : AC-3Format/Info : Audio Coding 3Codec ID : 2000Duration : 1 h 15 minBit rate mode : ConstantBit rate : 192 kb/sChannel(s) : 2 channelsChannel positions : Front: L RSampling rate : 48.0 kHzFrame rate : 31.250 FPS (1536 SPF)Bit depth : 16 bitsCompression mode : LossyStream size : 104 MiB (7%)Alignment : Split accross interleavesInterleave, duration : 42 ms (1.00 video frame)Interleave, preload duratio : 500 msService kind : Complete Main
Audio #2ID : 2Format : AC-3Format/Info : Audio Coding 3Codec ID : 2000Duration : 1 h 15 minBit rate mode : ConstantBit rate : 192 kb/sChannel(s) : 2 channelsChannel positions : Front: L RSampling rate : 48.0 kHzFrame rate : 31.250 FPS (1536 SPF)Bit depth : 16 bitsCompression mode : LossyStream size : 104 MiB (7%)Alignment : Split accross interleavesInterleave, duration : 42 ms (1.00 video frame)Interleave, preload duratio : 500 msService kind : Complete Main


[chi5o.com]_t_5620475.torrent
Торрент: Зарегистрирован ·  [ 2018-09-29 20:02 ] ·  d6f12bcbb4164d9eae2a7b528ac97e793503378d

14 KB

Статус: проверено
Скачан: 0 раз
Размер: 1.37 GB
Оценка: 
(Голосов: 0)
Сказали спасибо: 0  Спасибо
Похожие темы
[Профиль]    [ЛС]
Показать сообщения:    
Ответить на тему

Текущее время: Сегодня 20:10

Часовой пояс: GMT + 7



Вы не можете начинать темы
Вы не можете отвечать на сообщения
Вы не можете редактировать свои сообщения
Вы не можете удалять свои сообщения
Вы не можете голосовать в опросах
Вы не можете прикреплять файлы к сообщениям
Вы можете скачивать файлы


Adam Robitel | The Truman Show Essay | Impulse S01E01 720p HEVC x265-MeGusta 11 minutes