Все собаки попадают в рай 2 / Все псы попадают в рай 2 / All Dogs Go to Heaven 2 (Ларри Лекер / Larry Leker, Пол Сабелла / Paul Sabella) [1996, США, анимация, VHSRip] Dub Варус Видео

Ответить на тему
Статистика раздачи [Обновить пиров]
Размер:  1.37 GB   |    Зарегистрирован:  3 месяца 27 дней   |    Скачан:  0 раз

Полного источника не было: Никогда

 
   
 
 
 
Автор Сообщение

chi5o.com

Создавать темы 22-Сен-2018 20:55

[Цитировать]

Все собаки попадают в рай 2 / Все псы попадают в рай 2 / All Dogs Go to Heaven 2
[img=right]http://i6.imageban.ru/out/2018/09/14/6dd5b9e9a7305...b06674.jpg[/img]
Страна: США
Жанр: анимация
Продолжительность: 01:19:34
Год выхода: 1996
Перевод: Профессиональный (дублированный) Варус Видео
Русские субтитры: нет
Режиссёр: Ларри Лекер / Larry Leker, Пол Сабелла / Paul Sabella
Роли озвучивали: Владимир Антоник, Вадим Курков, Людмила Ильина, Ольга Кузнецова, Леонид Белозорович, Борис Быстров, Никита Прозоровский, Игорь Письменный
Описание: Все собаки могут попасть в рай… а некоторые счастливчики — даже вернуться обратно на землю. Именно это и случается, когда озорной кудряшка Чарли Баркин решает разыскать украденный из рая Волшебный Рожок. Предвкушая возможность поразвлечься, Чарли приглашает с собой своего приятеля Итчи. Путешествие начинается!
Не успев опомниться, друзья попадают в беду, но на помощь им приходит добрый мальчишка, убежавший из дома вместе со своей собакой — красавицей ирландским сеттером.
Но времени, чтобы вернуть драгоценный Рожок, остается все меньше и меньше, поэтому Чарли надо спешить! Ему предстоит испытать себя в схватке со злодеями и преодолеть множество препятствий на обратном пути в рай
Доп. информация: Оцифровка лицензионной VHS (личный архив) и получение VHSRip alenavova
Эксклюзив для Torrentc. При размещении данного релиза на других сайтах ссылка на автора alenavova обязательна.


Семпл: http://yadi.sk/i/BBSNcRoQQUY9VQ
Качество: VHSRip
Формат файла: AVI
Видео: 704x528 (1.33:1), 25 fps, XviD build 73 ~2255 kbps avg, 0.24 bit/pixel
Аудио: 48 kHz, AC3 Dolby Digital, 2/0 (L,R) ch, ~192 kbps
Субтитры: нет

Подробные технические данные

Все собаки попадают в рай-2 - All Dogs Go to Heaven 2 (by alenavova)_FS.aviFormat : AVIFormat/Info : Audio Video InterleaveFile size : 1.37 GiBDuration : 1 h 19 minOverall bit rate : 2 458 kb/sMovie name : Все собаки попадают в рай-2 - All Dogs Go to Heaven 2 (by alenavova)_FSDirector : by alenavovaWriting application : VirtualDubMod 1.5.10.3 | www.virtualdub-fr.org || (build 2550/release)Copyright : Edich2Comment : Torrentc
VideoID : 0Format : MPEG-4 VisualFormat profile : Advanced Simple@L5Format settings : BVOP2 / Custom MatrixFormat settings, BVOP : 2Format settings, QPel : NoFormat settings, GMC : No warppointsFormat settings, Matrix : CustomCodec ID : XVIDCodec ID/Hint : XviDDuration : 1 h 19 minBit rate : 2 256 kb/sWidth : 704 pixelsHeight : 528 pixelsDisplay aspect ratio : 4:3Frame rate : 25.000 FPSColor space : YUVChroma subsampling : 4:2:0Bit depth : 8 bitsScan type : ProgressiveCompression mode : LossyBits/(Pixel*Frame) : 0.243Stream size : 1.25 GiB (92%)Writing library : XviD 73
AudioID : 1Format : AC-3Format/Info : Audio Coding 3Codec ID : 2000Duration : 1 h 19 minBit rate mode : ConstantBit rate : 192 kb/sChannel(s) : 2 channelsChannel positions : Front: L RSampling rate : 48.0 kHzFrame rate : 31.250 FPS (1536 SPF)Bit depth : 16 bitsCompression mode : LossyStream size : 109 MiB (8%)Alignment : Split accross interleavesInterleave, duration : 40 ms (1.00 video frame)Interleave, preload duratio : 500 msService kind : Complete Main


[chi5o.com]_t_5613566.torrent
Торрент: Зарегистрирован ·  [ 2018-09-22 20:54 ] ·  d22c6eb7d06c7bd1ed243d5d7f9339d0edda77b2

14 KB

Статус: проверено
Скачан: 0 раз
Размер: 1.37 GB
Оценка: 
(Голосов: 0)
Сказали спасибо: 0  Спасибо
Похожие темы
[Профиль]    [ЛС]
Показать сообщения:    
Ответить на тему

Текущее время: Сегодня 20:11

Часовой пояс: GMT + 7



Вы не можете начинать темы
Вы не можете отвечать на сообщения
Вы не можете редактировать свои сообщения
Вы не можете удалять свои сообщения
Вы не можете голосовать в опросах
Вы не можете прикреплять файлы к сообщениям
Вы можете скачивать файлы


Перри Лэнг | Precio más alto | Genuino Sigma AF 17-50mm f2.8 EX DC OS HSM For Nikon