Покахонтас 2: возвращение Джона Смита / Pocahontas 2: The Return Of John Smith (Иниго Берасатеги / Inigo Berasatege, Даниэль Бендито / Daniel Bendito) [1996, США, анимация, VHSRip] VO

Ответить на тему
Статистика раздачи [Обновить пиров]
Размер:  700 MB   |    Зарегистрирован:  4 месяца 5 дней   |    Скачан:  0 раз

Полного источника не было: Никогда

 
   
 
 
 
Автор Сообщение

chi5o.com

Создавать темы 14-Сен-2018 21:05

[Цитировать]

Покахонтас 2: возвращение Джона Смита / Pocahontas 2: The Return Of John Smith
[img=right]http://i1.imageban.ru/out/2018/09/08/262cd21932b0a...a22db0.jpg[/img]
Страна: США
Жанр: анимация
Продолжительность: 00:40:21
Год выхода: 1996
Перевод: Одноголосый закадровый [женский]
Русские субтитры: нет
Режиссёр: Иниго Берасатеги / Inigo Berasatege, Даниэль Бендито / Daniel Bendito
Роли озвучивали: неизвестно
Описание: Продолжение полнометражного мультфильма о приключениях Покахонтас, дочери индейского вождя. В 1614 году Джон Смит возвращается в Джеймстаун, где вновь встречается с Покахонтас. В городе все изменилось в худшую сторону. Джону это очень не понравилось. Зная героя по первому фильму, мы уверены, что просто так он этого не оставит. Романтические приключения героев продолжаются. К сожалению, по качеству эта лента уступает оригиналу. (М. Иванов)
Доп. информация: раритетного мульта предоставил ilgiz01

Семпл: http://yadi.sk/i/yquss_nrfN4o_A
Качество: VHSRip
Формат файла: AVI
Видео: 704x528 (1.33:1), 25 fps, XviD build 73 ~2222 kbps avg, 0.24 bit/pixel
Аудио: 48 kHz, AC3 Dolby Digital, 2/0 (L,R) ch, ~192 kbps
Субтитры: отсутствуют

Подробные технические данные

Покахтонтас 2 возвращение Джона Смита - Pocahontas 2 The Return Of John Smith [by ilgiz01].aviFormat : AVIFormat/Info : Audio Video InterleaveFile size : 700 MiBDuration : 40 min 21 sOverall bit rate : 2 424 kb/sMovie name : Покахтонтас 2 возвращение Джона Смита - Pocahontas 2 The Return Of John Smith [by ilgiz01]Director : ilgiz01Writing application : VirtualDubMod 1.5.10.3 | www.virtualdub-fr.org || (build 2550/release)Copyright : Edich2Comment : Torrentc
VideoID : 0Format : MPEG-4 VisualFormat profile : Advanced Simple@L5Format settings : BVOP2 / Custom MatrixFormat settings, BVOP : 2Format settings, QPel : NoFormat settings, GMC : No warppointsFormat settings, Matrix : CustomCodec ID : XVIDCodec ID/Hint : XviDDuration : 40 min 21 sBit rate : 2 222 kb/sWidth : 704 pixelsHeight : 528 pixelsDisplay aspect ratio : 4:3Frame rate : 25.000 FPSColor space : YUVChroma subsampling : 4:2:0Bit depth : 8 bitsScan type : ProgressiveCompression mode : LossyBits/(Pixel*Frame) : 0.239Stream size : 641 MiB (92%)Writing library : XviD 73
AudioID : 1Format : AC-3Format/Info : Audio Coding 3Codec ID : 2000Duration : 40 min 21 sBit rate mode : ConstantBit rate : 192 kb/sChannel(s) : 2 channelsChannel positions : Front: L RSampling rate : 48.0 kHzFrame rate : 31.250 FPS (1536 SPF)Bit depth : 16 bitsCompression mode : LossyStream size : 55.4 MiB (8%)Alignment : Split accross interleavesInterleave, duration : 40 ms (1.00 video frame)Interleave, preload duratio : 500 msService kind : Complete Main


[chi5o.com]_t_5610791.torrent
Торрент: Зарегистрирован ·  [ 2018-09-14 21:04 ] ·  d1567eb6b4581f22f74b9df799f132f02070a9c3

14 KB

Статус: проверено
Скачан: 0 раз
Размер: 700 MB
Оценка: 
(Голосов: 0)
Сказали спасибо: 0  Спасибо
Похожие темы
[Профиль]    [ЛС]
Показать сообщения:    
Ответить на тему

Текущее время: Сегодня 20:09

Часовой пояс: GMT + 7



Вы не можете начинать темы
Вы не можете отвечать на сообщения
Вы не можете редактировать свои сообщения
Вы не можете удалять свои сообщения
Вы не можете голосовать в опросах
Вы не можете прикреплять файлы к сообщениям
Вы можете скачивать файлы


Adobe Scan | VJ On The Scene | Top sữa bột nhập khẩu được ưa chuộng nhất tại TpHCM