Очевидец | Øyevitne / Eyewitness / Сезон: 1 / Серии: 1-6 (6) (Ярл Эмселл Ларсен / Jarl Emsell Larsen) [2014, Норвегия, детектив, HDTVRip] DVO (Den904&DeadSno) + Rus Subs

Ответить на тему
Статистика раздачи [Обновить пиров]
Размер:  4.1 GB   |    Зарегистрирован:  7 месяцев 21 день   |    Скачан:  2 раза

Полного источника не было: 2 месяца 21 день

 
   
 
 
 
Автор Сообщение

chi5o.com

Создавать темы 27-Июн-2018 21:57

[Цитировать]

-Очевидец | Øyevitne- Год выхода: 2014
Страна: Норвегия
Жанр: Триллер, детектив
Продолжительность: ~ 00:58:00-Перевод: Любительский (двухголосый закадровый) | Den904&DeadSno-Режиссёр: Ярл Эмселл Ларсен / Jarl Emsell Larsen-В ролях: Аксель Бёйюм, Один Воге, Ингвиль Стёэн Грутмуль, Аннеке фон дер Липпе, Тобиас Сантельман, Техилла Блад, Роберт Фоллин, Франк Хьюсос, Ингве Бервен, Ингьер Эгеберг, Пер Херстад, Ким Сёренсен-Описание: Хеннинг и Филипп — двое друзей, живущих по соседству. Однажды ночью на мотоцикле они вместе отправились на песчаный карьер. Хеннинг готовится к областному чемпионату по мотогонкам, и Филипп впечатлен его мастерством. Когда они заходят в домик, чтобы передохнуть и попить воды, они слышат, как подъезжает какой-то автомобиль. Неожиданно раздаются выстрелы, и спустя секунды на земле оказывается несколько мертвых мужчин, а обнаженный убийца замечает двух парней, которые стали очевидцами преступления. Им удается сбежать, но что если убийца станет их выслеживать? Хеннинг и Филипп боятся, что кто-нибудь узнает о том, чем они занимались посреди ночи в песчаном карьере, и предпочитают молчать. Но рано или поздно правда всплывет, а полиция найдет того, кто устроил эту загадочную перестрелку..- -| [url=tracker.php?g=foreign_serials&nm=Øyevitne]Ссылка на предыдущие и альтернативные раздачи[/url]-Качество: HDTVRip
Формат файла: AVI
Видео: XviD, ~ 1500 kbps, 720x304 (16:9), 25,000 fps
Аудио 1: AC3, 48,0 КГц, 2 ch, 192 kbps - Rus
Субтитры: Русские (отдельным файлом)
Реклама: Отсутствует
Озвучка: Любительская (Двухголосая) Den904&DeadSno
[spoiler="MediaInfo">

"]Перевод: Субтитры (Елена Володина)
Озвучка: Любительская (Двухголосая) Den904&DeadSno

[spoiler="MediaInfo
Общее
Полное имя                               : F:\кино\Очевидец (Øyevitne) (Норвегия)\Очевидец.S01E02.avi
Формат файла                                   : AVI
Формат файла/Информация                        : Audio Video Interleave
Размер файла                             : 703 Мбайт
Продолжительность                        : 57 м.
Общий поток                              : 1701 Кбит/сек
Программа кодирования                    : VirtualDubMod 1.5.10.3 | www.virtualdub-fr.org || (build 2550/release)
Библиотека кодирования                   : VirtualDubMod build 2550/release
Видео
Идентификатор                            : 0
Формат файла                                   : MPEG-4 Visual
Профиль формата                          : Simple@L1
Параметр BVOP формата                    : Нет
Параметр QPel формата                    : Нет
Параметр GMC формата                     : Без точки перехода
Параметр матрицы формата                 : Default (H.263)
Идентификатор кодека                     : XVID
Идентификатор кодека/Подсказка           : XviD
Продолжительность                        : 57 м.
Битрейт                                  : 1499 Кбит/сек
Ширина                                   : 720 пикселей
Высота                                   : 304 пикселя
Соотношение сторон                       : 2,35:1
Частота кадров                           : 25,000 кадров/сек
Цветовое пространство                    : YUV
Субдискретизация насыщенности            : 4:2:0
Битовая глубина                          : 8 бит
Тип развёртки                            : Прогрессивная
Метод сжатия                             : С потерями
Бит/(Пиксели*Кадры)                      : 0.274
Размер потока                            : 620 Мбайт (88%)
Библиотека кодирования                   : Lavc53.33.0
Аудио
Идентификатор                            : 1
Формат файла                                   : AC-3
Формат файла/Информация                        : Audio Coding 3
Расширение режима                        : CM (complete main)
Параметр Endianness формата              : Big
Идентификатор кодека                     : 2000
Продолжительность                        : 57 м.
Вид битрейта                             : Постоянный
Битрейт                                  : 192 Кбит/сек
Каналы                                   : 2 канала
Расположение каналов                     : Front: L R
Частота                                  : 48,0 КГц
Битовая глубина                          : 16 бит
Метод сжатия                             : С потерями
Размер потока                            : 79,4 Мбайт (11%)
Выравнивание                             : Разделение по промежуткам
Продолжительность промежутка             : 40  мс. (1,00 видеокадр)
Время предзагрузки промежутка            : 500  мс.

Скриншоты

Раздача ведется путем добавления новых серий

Когда раздача ведётся путём добавления новых серий, при каждом добавлении создётся новый торрент. Чтобы начать докачку новой серии, пользователям необходимо сделать следующее:
(1) остановить скачивание,
(2) удалить старый торрент у себя из клиента (старые серии удалять не надо),
(3) скачать новый торрент и запустить его у себя в клиенте вместо старого, при этом указать клиенту путь в старую папку, куда и должно происходить скачивание новых серий.
Ваш клиент при этом должен произвести хеширование (проверку) старой папки (если не производит сам - помогите ему сделать это), и будет докачивать только те серии, которых у вас ещё нет. Старые серии при этом не удаляются, а продолжают раздаваться!
Eсли вы уже удалили старые серии, то предотвратить повторную закачку старых серий можно, отжав галочку в соответсвующих местах при запуске нового торрента. По возможности, желательно не удалять старые серии как можно дольше, чтобы релизёр не столько продолжал раздавать старые серии, а смог сконцентрироваться на новых.
-


[chi5o.com]_t_5056095.torrent
Торрент: Зарегистрирован ·  [ 2018-06-27 21:57 ] ·  da478367b4582959f8c80287a29536b56c1f01c1

22 KB

Статус: проверено
Скачан: 2 раз
Размер: 4.1 GB
Оценка: 
(Голосов: 0)
Сказали спасибо: 0  Спасибо
Похожие темы
[Профиль]    [ЛС]
Показать сообщения:    
Ответить на тему

Текущее время: Сегодня 07:46

Часовой пояс: GMT + 7



Вы не можете начинать темы
Вы не можете отвечать на сообщения
Вы не можете редактировать свои сообщения
Вы не можете удалять свои сообщения
Вы не можете голосовать в опросах
Вы не можете прикреплять файлы к сообщениям
Вы можете скачивать файлы


Watch Face - Minimal Elegant v3.8.4.014 APK Mod | Astronomy - May 2018 | Dido Give You Up