Путешествие на Гилленблу / Vägen till Gyllenblå! (Лейф Крантц / Leif Krantz) [1985, Швеция, фантастика, семейный, WEB-Rip] VO + Sub Rus + Original Swe

Ответить на тему
Статистика раздачи [Обновить пиров]
Размер:  1.78 GB   |    Зарегистрирован:  6 месяцев 24 дня   |    Скачан:  2 раза

Полного источника не было: 4 месяца 4 дня

 
   
 
 
 
Автор Сообщение

chi5o.com

Создавать темы 27-Июн-2018 21:57

[Цитировать]

Путешествие на Гилленблу / Vägen till Gyllenblå!
Страна: Швеция
Жанр: фантастика, семейный
Год выхода: 1985
Продолжительность: ~ 00:28:00
Перевод: Одноголосый закадровый
Субтитры: русские
Оригинальная аудиодорожка: шведский
Режиссер: Лейф Крантц / Leif Krantz
В ролях: Мария Торнлунд / Maria Tornlund, Эрик Линдгрен / Erik Lindgren, Sven-Erik Vikström, Кристина Карлвинд / Christina Carlwind, Мария Хедборг / Maria Hedborg, Тунсел Куртиз / Tuncel Kurtiz, Педер Фальк / Peder Falk, Леннарт Толлен / Lennart Tollén, Бенни Хааг / Benny Haag, Карли Эльвегард / Charlie Elvegård, Catharina Alinder и др.
Описание: Гилленбло - далёкая планета, президент которой ненавидит весёлых людей. Он запрещает жителям планеты смеяться и даже улыбаться. Самые смелые весельчаки создают партизанские отряды и уходят в подполье. На помощь бунтовщикам с Земли отправляются двое детей - Сесиль и Фредерик. С такой мощной поддержкой смех гарантированно вернётся на Гилленбло!
Сэмпл: http://multi-up.com/1073673
Ссылка на предыдущие и альтернативные раздачи: [url=tracker.php?g=foreign_serials&nm=Путешествие%20на%20Гилленблу]http://Torrentc/forum/tracker.php?g=foreign_serials...енблу[/url]
Качество видео: WEB-Rip
Формат файла: AVI
Видео: 624x480, 25 fps, XviD MPEG-4 ~1329 kbps avg, 0.18 bit/pixel
Аудио 1: 48 kHz, MPEG Layer 3, 2 ch, ~192.00 kbps avg (русский)
Аудио 2: 48 kHz, MPEG Layer 3, 2 ch, ~192.00 kbps avg (шведский)
Формат файла субтитров: softsub (SRT)
Доп. информация о субтитрах: Русские внешние (demonpit)

MediaInfo

ОбщееПолное имя : F:\С моей озвучкой\Путешествие на Гилленбло\Путешествие на Гилленблу 3.aviФормат файла : AVIФормат файла/Информация : Audio Video InterleaveРазмер файла : 370 МбайтПродолжительность : 29 м.Общий поток : 1729 Кбит/секПрограмма кодирования : VirtualDubModRus 1.5.10.2 (build 2542/release)Библиотека кодирования : VirtualDubMod build 2542/release
ВидеоИдентификатор : 0Формат файла : MPEG-4 VisualПрофиль формата : Advanced Simple@L5Параметр BVOP формата : 2Параметр QPel формата : НетПараметр GMC формата : Без точки переходаПараметр матрицы формата : Default (H.263)Режим смешивания : Сжатый битовый потокИдентификатор кодека : XVIDИдентификатор кодека/Подсказка : XviDПродолжительность : 29 м.Битрейт : 1330 Кбит/секШирина : 624 пикселяВысота : 480 пикселейСоотношение сторон : 4:3Частота кадров : 25,000 кадров/секЦветовое пространство : YUVСубдискретизация насыщенности : 4:2:0Битовая глубина : 8 битТип развёртки : ПрогрессивнаяМетод сжатия : С потерямиБит/(Пиксели*Кадры) : 0.178Размер потока : 284 Мбайт (77%)Библиотека кодирования : XviD 67
Аудио #1Идентификатор : 1Формат файла : MPEG AudioВерсия формата : Version 1Профиль формата : Layer 3Режим : Joint stereoРасширение режима : MS StereoИдентификатор кодека : 55Идентификатор кодека/Подсказка : MP3Продолжительность : 29 м.Вид битрейта : ПостоянныйБитрейт : 192 Кбит/секКаналы : 2 каналаЧастота : 48,0 КГцМетод сжатия : С потерямиРазмер потока : 41,0 Мбайт (11%)Выравнивание : Соединение по промежуткамПродолжительность промежутка : 40 мс. (1,00 видеокадр)Время предзагрузки промежутка : 504 мс.Библиотека кодирования : LAME3.96
Аудио #2Идентификатор : 2Формат файла : MPEG AudioВерсия формата : Version 1Профиль формата : Layer 3Режим : Joint stereoРасширение режима : MS StereoИдентификатор кодека : 55Идентификатор кодека/Подсказка : MP3Продолжительность : 29 м.Вид битрейта : ПостоянныйБитрейт : 192 Кбит/секКаналы : 2 каналаЧастота : 48,0 КГцМетод сжатия : С потерямиРазмер потока : 41,0 Мбайт (11%)Выравнивание : Разделение по промежуткамПродолжительность промежутка : 40 мс. (1,00 видеокадр)Время предзагрузки промежутка : 500 мс.Библиотека кодирования : LAME3.98.4

Скриншоты



[chi5o.com]_t_5108080.torrent
Торрент: Зарегистрирован ·  [ 2018-06-27 21:57 ] ·  95db22e38b87fb2c963a2000d7c2ca94a29e3577

19 KB

Статус: проверено
Скачан: 2 раз
Размер: 1.78 GB
Оценка: 
(Голосов: 0)
Сказали спасибо: 0  Спасибо
Похожие темы
[Профиль]    [ЛС]
Показать сообщения:    
Ответить на тему

Текущее время: Сегодня 11:47

Часовой пояс: GMT + 7



Вы не можете начинать темы
Вы не можете отвечать на сообщения
Вы не можете редактировать свои сообщения
Вы не можете удалять свои сообщения
Вы не можете голосовать в опросах
Вы не можете прикреплять файлы к сообщениям
Вы можете скачивать файлы


Episodio 12: Il Secondo Ordine del Boss | The Flash: Season 5 | od 1971 zł