Представления / Forestillinger / Сезон: 1 / Серии: 1-6 из 6 (Пер Флю / Per Fly) [2007, Дания, драма, 2xDVD9 (Custom)] R2, VO (datynet) + Sub (Rus) + Original (Dan)

Ответить на тему
Статистика раздачи [Обновить пиров]
Размер:  15.65 GB   |    Зарегистрирован:  6 месяцев 24 дня   |    Скачан:  0 раз

Полного источника не было: 1 месяц 20 дней

 
   
 
 
 
Автор Сообщение

chi5o.com

Создавать темы 27-Июн-2018 21:57

[Цитировать]

Представления / Forestillinger
Год выхода: 2007
Страна: Дания
Жанр: драма
Продолжительность: 6 x ~ 58:30 мин.
Перевод: любительский (одноголосый закадровый) – datynet
Субтитры: русские, английские, шведские, датские
Оригинальная аудиодорожка: датский
Реклама: нет
Режиссёр: Пер Флю / Per Fly
В ролях: Мадс Вилле, Соня Рихтер, Сара Йорт Дитлевсен, Пернилла Аугуст, Еспер Кристенсен, Деян Чукич, Бенедикте Хансен, Даг Малмберг, Пер Флю, Педер Билле, Педер Хольм Йохансен, Эллен Найман, Джон Мартинес, Мари Бролин Тани, Мартин Джейкоб Петерсен, Харриет Андерссон, Жакс Лауритсен
Описание: В одном из театров Копенгагена режиссёр-новатор Марко ставит спектакль "Венера и Адонис" по одноимённой поэме Шекспира. В то же самое время за кулисами разгораются не менее пылкие страсти, чем на сцене, плетутся интриги, в которые вовлекаются не только актёры Якоб, Таня, Ева, руководитель театра Йенс, но и сам режиссёр Марко. Каждая серия представляет собой рассказ одного из участников постановки о происходящих событиях, его отношении к ним и к окружающим его людям.
Доп. информация: IMDb: http://www.imdb.com/title/tt0989998/
User Rating: 8.3/10 (231 users)
Источник: Torrentc от R2 (Zentropa, Дания) скачан с Тика, релизер MrElg.
На оригинальном диске две дорожки на датском языке (одна из них – режиссерский комментарий), а также английские, шведские и датские субтитры.
На первом диске – 1-3 серии, на втором – 4-6 серии.
Перевод и русские субтитры [url=profile.php?mode=viewprofile&u=22292459]adelstein_s[/url] (раздача).
Озвучивание – datynet (раздача [url=profile.php?mode=viewprofile&u=15347905]ananasix[/url]).
В целях соблюдения максимального размера DVD9 меню дисков переведено в статику.
Данную сборку осуществил [url=profile.php?mode=viewprofile&u=5916601]Нордер[/url].
Спасибо всем, без чьего участия эта раздача не состоялась бы.
Сэмпл
[url=tracker.php?nm=Forestillinger+2007+Per+Fly]Ссылка на предыдущие и альтернативные раздачи[/url]
Качество: 2xDVD9 (Custom)
Формат файла: DVD-Video
Видео: PAL 16:9 (720x576) VBR Auto Letterboxed 25.00 fps 5752 Kbps
Аудио 1: Russian (Dolby AC3, 2 ch, 48.0 KHz, 192 Kbps) – VO (datynet);
Аудио 2: Dansk (Dolby AC3, 1 ch, 48.0 KHz, 96 Kbps) – режиссерский комментарий;
Аудио 3: Dansk (Dolby AC3, 2 ch, 48.0 KHz, 224 Kbps) – оригинальная дорожка

DVDInfoДиск 1

Title:
Size: 7.84 Gb ( 8 224 994 KBytes ) - DVD-9
Enabled regions: 1, 2, 3, 4, 5, 6, 7, 8
VTS_01 :
Play Length: 00:00:15
Video: PAL 16:9 (720x576) VBR, Auto Letterboxed
VTS_02 :
Play Length: 00:58:30
Video: PAL 16:9 (720x576) VBR, Auto Letterboxed
Audio:
Russian (Dolby AC3, 2 ch)
Dansk (Dolby AC3, 1 ch)
Dansk (Dolby AC3, 2 ch)
Subtitles:
Dansk
Svenska
English
Dansk
Russian
VTS_03 :
Play Length: 00:58:30
Video: PAL 16:9 (720x576) VBR, Auto Letterboxed
Audio:
Russian (Dolby AC3, 2 ch)
Dansk (Dolby AC3, 1 ch)
Dansk (Dolby AC3, 2 ch)
Subtitles:
Dansk
Svenska
English
Dansk
Russian
VTS_04 :
Play Length: 00:58:30
Video: PAL 16:9 (720x576) VBR, Auto Letterboxed
Audio:
Russian (Dolby AC3, 2 ch)
Dansk (Dolby AC3, 1 ch)
Dansk (Dolby AC3, 2 ch)
Subtitles:
Dansk
Svenska
English
Dansk
Russian
Menu Video:
NTSC 4:3 (720x480) VBR
Auto Pan&Scan, Auto Letterboxed
Menu English Language Unit :
Root Menu

Диск 2

Title:
Size: 7.80 Gb ( 8 180 432 KBytes ) - DVD-9
Enabled regions: 1, 2, 3, 4, 5, 6, 7, 8
VTS_01 :
Play Length: 00:00:15
Video: PAL 16:9 (720x576) VBR, Auto Letterboxed
VTS_02 :
Play Length: 00:58:30
Video: PAL 16:9 (720x576) VBR, Auto Letterboxed
Audio:
Russian (Dolby AC3, 2 ch)
Dansk (Dolby AC3, 1 ch)
Dansk (Dolby AC3, 2 ch)
Subtitles:
Dansk
Svenska
English
Dansk
Russian
VTS_03 :
Play Length: 00:57:30
Video: PAL 16:9 (720x576) VBR, Auto Letterboxed
Audio:
Russian (Dolby AC3, 2 ch)
Dansk (Dolby AC3, 1 ch)
Dansk (Dolby AC3, 2 ch)
Subtitles:
Dansk
Svenska
English
Dansk
Russian
VTS_04 :
Play Length: 00:58:30
Video: PAL 16:9 (720x576) VBR, Auto Letterboxed
Audio:
Russian (Dolby AC3, 2 ch)
Dansk (Dolby AC3, 1 ch)
Dansk (Dolby AC3, 2 ch)
Subtitles:
Dansk
Svenska
English
Dansk
Russian
Menu Video:
NTSC 4:3 (720x480) VBR
Auto Pan&Scan, Auto Letterboxed
Menu English Language Unit :
Root Menu

MediaInfoДиск 1

Общее
Полное имя : C:\Users\Евгений\Downloads\Forestillinger DVD_Custom\Disc 1\VIDEO_TS\VTS_02_2.VOB
Формат файла : MPEG-PS
Размер файла : 1024 Мбайт
Продолжительность : 22 м.
Режим общего битрейта : Переменный
Общий поток : 6391 Кбит/сек
Видео
Идентификатор : 224 (0xE0)
Формат файла : MPEG Video
Версия формата : Version 2
Профиль формата : Main@Main
Параметр BVOP формата : Да
Параметр матрицы формата : Выборочная
Параметр GOP формата : M=3, N=12
Продолжительность : 22 м.
Вид битрейта : Переменный
Битрейт : 5752 Кбит/сек
Максимальный битрейт : 8600 Кбит/сек
Ширина : 720 пикселей
Высота : 576 пикселей
Соотношение сторон : 16:9
Частота кадров : 25,000 кадров/сек
Стандарт вещания : PAL
Цветовое пространство : YUV
Субдискретизация насыщенности : 4:2:0
Битовая глубина : 8 бит
Тип развёртки : Чересстрочная
Порядок развёртки : Нижнее поле первое
Метод сжатия : С потерями
Бит/(Пиксели*Кадры) : 0.555
Размер потока : 921 Мбайт (90%)
Основные цвета : BT.601 PAL
Характеристики трансфера : BT.470 System B, BT.470 System G
Коэффициенты матрицы : BT.601
Аудио #1
Идентификатор : 189 (0xBD)-128 (0x80)
Формат файла : AC-3
Формат файла/Информация : Audio Coding 3
Расширение режима : CM (complete main)
Параметр Endianness формата : Big
Режим смешивания : DVD-Video
Продолжительность : 22 м.
Вид битрейта : Постоянный
Битрейт : 192 Кбит/сек
Каналы : 2 канала
Расположение каналов : Front: L R
Частота : 48,0 КГц
Битовая глубина : 16 бит
Метод сжатия : С потерями
Задержка видео : -528 мс.
Размер потока : 30,8 Мбайт (3%)
Аудио #2
Идентификатор : 189 (0xBD)-129 (0x81)
Формат файла : AC-3
Формат файла/Информация : Audio Coding 3
Расширение режима : CM (complete main)
Параметр Endianness формата : Big
Режим смешивания : DVD-Video
Продолжительность : 22 м.
Вид битрейта : Постоянный
Битрейт : 96,0 Кбит/сек
Каналы : 1 канал
Расположение каналов : Front: C
Частота : 48,0 КГц
Битовая глубина : 16 бит
Метод сжатия : С потерями
Задержка видео : -368 мс.
Размер потока : 15,4 Мбайт (2%)
Аудио #3
Идентификатор : 189 (0xBD)-130 (0x82)
Формат файла : AC-3
Формат файла/Информация : Audio Coding 3
Расширение режима : CM (complete main)
Параметр Endianness формата : Big
Режим смешивания : DVD-Video
Продолжительность : 22 м.
Вид битрейта : Постоянный
Битрейт : 224 Кбит/сек
Каналы : 2 канала
Расположение каналов : Front: L R
Частота : 48,0 КГц
Битовая глубина : 16 бит
Метод сжатия : С потерями
Задержка видео : -496 мс.
Размер потока : 35,9 Мбайт (4%)
Текст #1
Идентификатор : 189 (0xBD)-32 (0x20)
Формат файла : RLE
Формат файла/Информация : Run-length encoding
Режим смешивания : DVD-Video
Задержка видео : 200 мс.
Текст #2
Идентификатор : 189 (0xBD)-33 (0x21)
Формат файла : RLE
Формат файла/Информация : Run-length encoding
Режим смешивания : DVD-Video
Продолжительность : 22 м.
Задержка видео : 400 мс.
Текст #3
Идентификатор : 189 (0xBD)-34 (0x22)
Формат файла : RLE
Формат файла/Информация : Run-length encoding
Режим смешивания : DVD-Video
Задержка видео : 680 мс.
Текст #4
Идентификатор : 189 (0xBD)-36 (0x24)
Формат файла : RLE
Формат файла/Информация : Run-length encoding
Режим смешивания : DVD-Video
Продолжительность : 22 м.
Задержка видео : 440 мс.
Меню

Диск 2

Общее
Полное имя : C:\Users\Евгений\Downloads\Forestillinger DVD_Custom\Disc 2\VIDEO_TS\VTS_02_2.VOB
Формат файла : MPEG-PS
Размер файла : 1024 Мбайт
Продолжительность : 22 м.
Режим общего битрейта : Переменный
Общий поток : 6262 Кбит/сек
Видео
Идентификатор : 224 (0xE0)
Формат файла : MPEG Video
Версия формата : Version 2
Профиль формата : Main@Main
Параметр BVOP формата : Да
Параметр матрицы формата : Выборочная
Параметр GOP формата : M=3, N=12
Продолжительность : 22 м.
Вид битрейта : Переменный
Битрейт : 5626 Кбит/сек
Максимальный битрейт : 8600 Кбит/сек
Ширина : 720 пикселей
Высота : 576 пикселей
Соотношение сторон : 16:9
Частота кадров : 25,000 кадров/сек
Стандарт вещания : PAL
Цветовое пространство : YUV
Субдискретизация насыщенности : 4:2:0
Битовая глубина : 8 бит
Тип развёртки : Чересстрочная
Порядок развёртки : Верхнее поле первое
Метод сжатия : С потерями
Бит/(Пиксели*Кадры) : 0.543
Размер потока : 920 Мбайт (90%)
Основные цвета : BT.601 PAL
Характеристики трансфера : BT.470 System B, BT.470 System G
Коэффициенты матрицы : BT.601
Аудио #1
Идентификатор : 189 (0xBD)-128 (0x80)
Формат файла : AC-3
Формат файла/Информация : Audio Coding 3
Расширение режима : CM (complete main)
Параметр Endianness формата : Big
Режим смешивания : DVD-Video
Продолжительность : 22 м.
Вид битрейта : Постоянный
Битрейт : 192 Кбит/сек
Каналы : 2 канала
Расположение каналов : Front: L R
Частота : 48,0 КГц
Битовая глубина : 16 бит
Метод сжатия : С потерями
Задержка видео : -592 мс.
Размер потока : 31,4 Мбайт (3%)
Аудио #2
Идентификатор : 189 (0xBD)-129 (0x81)
Формат файла : AC-3
Формат файла/Информация : Audio Coding 3
Расширение режима : CM (complete main)
Параметр Endianness формата : Big
Режим смешивания : DVD-Video
Продолжительность : 22 м.
Вид битрейта : Постоянный
Битрейт : 96,0 Кбит/сек
Каналы : 1 канал
Расположение каналов : Front: C
Частота : 48,0 КГц
Битовая глубина : 16 бит
Метод сжатия : С потерями
Задержка видео : -528 мс.
Размер потока : 15,7 Мбайт (2%)
Аудио #3
Идентификатор : 189 (0xBD)-130 (0x82)
Формат файла : AC-3
Формат файла/Информация : Audio Coding 3
Расширение режима : CM (complete main)
Параметр Endianness формата : Big
Режим смешивания : DVD-Video
Продолжительность : 22 м.
Вид битрейта : Постоянный
Битрейт : 224 Кбит/сек
Каналы : 2 канала
Расположение каналов : Front: L R
Частота : 48,0 КГц
Битовая глубина : 16 бит
Метод сжатия : С потерями
Задержка видео : -624 мс.
Размер потока : 36,6 Мбайт (4%)
Текст #1
Идентификатор : 189 (0xBD)-32 (0x20)
Формат файла : RLE
Формат файла/Информация : Run-length encoding
Режим смешивания : DVD-Video
Продолжительность : 22 м.
Задержка видео : 360 мс.
Текст #2
Идентификатор : 189 (0xBD)-33 (0x21)
Формат файла : RLE
Формат файла/Информация : Run-length encoding
Режим смешивания : DVD-Video
Продолжительность : 22 м.
Задержка видео : 120 мс.
Текст #3
Идентификатор : 189 (0xBD)-34 (0x22)
Формат файла : RLE
Формат файла/Информация : Run-length encoding
Режим смешивания : DVD-Video
Продолжительность : 22 м.
Задержка видео : 400 мс.
Текст #4
Идентификатор : 189 (0xBD)-35 (0x23)
Формат файла : RLE
Формат файла/Информация : Run-length encoding
Режим смешивания : DVD-Video
Продолжительность : 22 м.
Задержка видео : 360 мс.
Текст #5
Идентификатор : 189 (0xBD)-36 (0x24)
Формат файла : RLE
Формат файла/Информация : Run-length encoding
Режим смешивания : DVD-Video
Продолжительность : 22 м.
Задержка видео : 440 мс.
Меню

Используемые программы

PGCDemux (извлечение)
BeSweet, Sony Vegas 9 (звук)
DVD-lab PRO 2, Subtitle Workshop (субтитры)
MuxMan (сборка)
DvdReMakePro (финал)

Скриншоты меню



[chi5o.com]_t_5261475.torrent
Торрент: Зарегистрирован ·  [ 2018-06-27 21:57 ] ·  230f537b87d6ac054a47d2e0a92e227884ffd6fa

81 KB

Статус: проверено
Скачан: 0 раз
Размер: 15.65 GB
Оценка: 
(Голосов: 0)
Сказали спасибо: 0  Спасибо
Похожие темы
[Профиль]    [ЛС]
Показать сообщения:    
Ответить на тему

Текущее время: Сегодня 12:15

Часовой пояс: GMT + 7



Вы не можете начинать темы
Вы не можете отвечать на сообщения
Вы не можете редактировать свои сообщения
Вы не можете удалять свои сообщения
Вы не можете голосовать в опросах
Вы не можете прикреплять файлы к сообщениям
Вы можете скачивать файлы


Christine (2016) | Kostiumowy | Martin Garrix Ocean (feat. Khalid)