Миллениум / Millennium / Сезон: 1 / Серии: 1-6 (Нильс Арден Оплев / Niels Arden Oplev, Даниэль Альфредсон / Daniel Alfredson) [2010, Швеция, Дания, Германия, Норвегия, Триллер, драма, BDRip-AVC] MVO (100ТВ) + AVO (Нем) + Original Swe + Sub (Rus, Eng)

Ответить на тему
Статистика раздачи [Обновить пиров]
Размер:  15.84 GB   |    Зарегистрирован:  6 месяцев 24 дня   |    Скачан:  0 раз
Сидеров:  1  [  0 KB/s  ]   Подробная статистика скачивающих
 
   
 
 
 
Автор Сообщение

chi5o.com

Создавать темы 27-Июн-2018 21:57

[Цитировать]

-Миллениум / Millennium
Сезон 1 / Season 1
[Extended] Страна: Швеция, Германия, Норвегия, Дания
Студия: Det Danske Filminstitut, Film i Väst, Filmpool Stockholm Mälardalen, Nordisk Film A/S, Nordisk Film- & TV-Fond, Spiltan Underhållning, Svenska Filminstitutet (SFI), Sveriges Television (SVT), Yellow Bird Films AB, ZDF Enterprises, Zweites Deutsches Fernsehen (ZDF)
Жанр: триллер, драма, криминал, детектив
Год выхода: 2010
Продолжительность: 09:18:00 [01:33:00 + 01:33:00 + 01:33:15 + 01:33:11 + 01:32:20 + 01:33:14]-Перевод 1: Профессиональный (многоголосый, закадровый) Русский Репортаж, 100ТВ
Перевод 2: Авторский (одноголосый, закадровый) Юрий Немахов
Оригинальная аудиодорожка: шведская
Субтитры: русские, английские
Режиссер: Нильс Арден Оплев / Niels Arden Oplev, Даниэль Альфредсон / Daniel Alfredson
Композитор: Якоб Грот
В ролях: Микаэл Нюквист, Нуми Рапас, Лена Эндре, Питер Абер, Свен-Бертиль Таубе, Якоб Эрикссон, Петер Андерссон, Ингвар Хирдвалль, Георги Стайков, Микке Спрайц, Марика Лагеркранц, Бьёрн Гранат, Эва Фрёлинг, Михалис Куцогианнакис, Анника Халлин, София Ледарп, Томас Колер, Давид Денсик, Гуннель Линдблум, Ясмин Гарби, Пер Оскарссон, Реубен Сальмандер, Пелле Боландер
Описание: История о детективе-журналисте Микаэле Блумквисте и девушке-хакере Лисбет Саландер.-
Сэмпл: скачать
[url=tracker.php?nm=Millennium]http://Torrentc/forum/tracker.php?nm=Millennium[/url]- -
Энкод от: Elheym
Качество: BDRip-AVC (Источник: Torrentc [The Girl with the Dragon Tattoo 2009 Extended 1080p GBR Blu-ray AVC DTS-HD MA 5.1])
Формат файла: MKV
Видео: 928x522 (16:9), 23.976 fps, MPEG-4 AVC, ~3000 kbps avg, 0.253 bit/pixel
Аудио #1: Русский: AC3, 2.0, 48 kHz, ~192 Кбит/с | Профессиональный (многоголосый, закадровый) Русский Репортаж, 100ТВ |
Аудио #2: Русский: AC3, 5.1, 48 kHz, ~448 Кбит/с | Авторский (одноголосый, закадровый) Юрий Немахов |
Аудио #3: Английский: AC3, 5.1, 48 kHz, ~448 Кбит/с | Оригинал |
Реклама: нет
Субтитры:
  • русские: | .srt | полные, А. Кузнецова |
  • русские: | .srt | форсированные, на основе полных от А. Кузнецова |
  • английские: | .srt | полные |
  • английские: | .srt | форсированные |
Главы: присутствуют, сохранены оригинальные

MediaInfo

Уникальный идентификатор : 231535622749277637395898015747649903255 (0xAE30238F3F1A34AC8E3C78EE41CD1A97)
Полное имя : Millennium.S01.E01.Man.som.hatar.kvinnor.Part.1-.mkv
Формат файла : Matroska
Версия формата : Version 2
Размер файла : 2.67 GiB
Продолжительность : 1 h 33 min
Общий поток : 4 108 kb/s
Название фильма : 01: Девушка с татуировкой дракона / Мужчины, которые ненавидят женщин / The Girl with the Dragon Tattoo / Män som hatar kvinnor
Дата кодирования : UTC 2017-08-01 08:50:33
Программа кодирования : mkvmerge v5.2.0 ('I can't explain') built on Dec 18 2011 18:12:03
Библиотека кодирования : libebml v1.2.3 + libmatroska v1.3.0
Обложка : Yes
Attachments : cover.jpg
Video
Идентификатор : 1
Формат файла : AVC
Формат файла/Информация : Advanced Video Codec
Профиль формата : High@L4
Параметр CABAC формата : Yes
Параметр RefFrames формата : 15 frames
Идентификатор кодека : V_MPEG4/ISO/AVC
Продолжительность : 1 h 33 min
Битрейт : 2 938 kb/s
Ширина : 928 pixels
Высота : 522 pixels
Соотношение сторон : 16:9
Режим частоты кадров : Constant
Частота кадров : 23.976 (24000/1001) FPS
Цветовое пространство : YUV
Субдискретизация насыщенности : 4:2:0
Битовая глубина : 8 bits
Тип развёртки : Progressive
Бит/(Пиксели*Кадры) : 0.253
Размер потока : 1.91 GiB (72%)
Заголовок : Миллениум [Сезон 1] / Millennium [Season 1] (2010) Extended BDRip-AVC by Elheym []
Библиотека кодирования : x264 core 152 r2851+58 429492e t_mod_Custom [8-bit@all X86_64]
Настройки программы : cabac=1 / ref=15 / deblock=1:-3:-2 / analyse=0x3:0x133 / me=umh / subme=11 / psy=1 / fade_compensate=0.00 / psy_rd=1.00:0.00 / mixed_ref=1 / me_range=32 / chroma_me=1 / trellis=2 / 8x8dct=1 / cqm=0 / deadzone=21,11 / fast_pskip=0 / chroma_qp_offset=-2 / threads=6 / lookahead_threads=1 / sliced_threads=0 / nr=0 / decimate=1 / interlaced=0 / bluray_compat=0 / constrained_intra=0 / fgo=0 / bframes=15 / b_pyramid=2 / b_adapt=2 / b_bias=0 / direct=3 / weightb=1 / open_gop=0 / weightp=2 / keyint=230 / keyint_min=23 / scenecut=40 / intra_refresh=0 / rc_lookahead=80 / rc=crf / mbtree=0 / crf=17.7000 / qcomp=0.65 / qpmin=0:0:0 / qpmax=69:69:69 / qpstep=4 / vbv_maxrate=20000 / vbv_bufsize=25000 / crf_max=0.0 / nal_hrd=none / filler=0 / ip_ratio=1.40 / pb_ratio=1.30 / aq=3:0.80 / aq-sensitivity=10.00 / aq-factor=1.00:1.00:1.00 / aq2=0 / aq3=0
Язык : Swedish
Default : Yes
Forced : Yes
Audio #1
Идентификатор : 2
Формат файла : AC-3
Формат файла/Информация : Audio Coding 3
Параметр Endianness формата : Big
Идентификатор кодека : A_AC3
Продолжительность : 1 h 33 min
Вид битрейта : Constant
Битрейт : 192 kb/s
Каналы : 2 channels
Расположение каналов : Front: L R
Частота : 48.0 kHz
Частота кадров : 31.250 FPS (1536 SPF)
Битовая глубина : 16 bits
Метод сжатия : Lossy
Размер потока : 128 MiB (5%)
Заголовок : AC3 2.0 @ 192 kbps - MVO, 100TV
Язык : Russian
ServiceKind/String : Complete Main
Default : No
Forced : No
Audio #2
Идентификатор : 3
Формат файла : AC-3
Формат файла/Информация : Audio Coding 3
Параметр Endianness формата : Big
Идентификатор кодека : A_AC3
Продолжительность : 1 h 33 min
Вид битрейта : Constant
Битрейт : 448 kb/s
Каналы : 6 channels
Расположение каналов : Front: L C R, Side: L R, LFE
Частота : 48.0 kHz
Частота кадров : 31.250 FPS (1536 SPF)
Битовая глубина : 16 bits
Метод сжатия : Lossy
Размер потока : 298 MiB (11%)
Заголовок : AC3 5.1 @ 448 kbps - VO, Nemahov
Язык : Russian
ServiceKind/String : Complete Main
Default : No
Forced : No
Audio #3
Идентификатор : 4
Формат файла : AC-3
Формат файла/Информация : Audio Coding 3
Параметр Endianness формата : Big
Идентификатор кодека : A_AC3
Продолжительность : 1 h 33 min
Вид битрейта : Constant
Битрейт : 448 kb/s
Каналы : 6 channels
Расположение каналов : Front: L C R, Side: L R, LFE
Частота : 48.0 kHz
Частота кадров : 31.250 FPS (1536 SPF)
Битовая глубина : 16 bits
Метод сжатия : Lossy
Размер потока : 298 MiB (11%)
Заголовок : AC3 5.1 @ 448 kbps - Original
Язык : Swedish
ServiceKind/String : Complete Main
Default : No
Forced : No
Text #1
Идентификатор : 5
Формат файла : UTF-8
Идентификатор кодека : S_TEXT/UTF8
Идентификатор кодека/Информация : UTF-8 Plain Text
Заголовок : Forced
Язык : Russian
Default : Yes
Forced : No
Text #2
Идентификатор : 6
Формат файла : UTF-8
Идентификатор кодека : S_TEXT/UTF8
Идентификатор кодека/Информация : UTF-8 Plain Text
Заголовок : Full
Язык : Russian
Default : No
Forced : No
Text #3
Идентификатор : 7
Формат файла : UTF-8
Идентификатор кодека : S_TEXT/UTF8
Идентификатор кодека/Информация : UTF-8 Plain Text
Заголовок : Forced
Язык : English
Default : No
Forced : No
Text #4
Идентификатор : 8
Формат файла : UTF-8
Идентификатор кодека : S_TEXT/UTF8
Идентификатор кодека/Информация : UTF-8 Plain Text
Заголовок : Full
Язык : English
Default : No
Forced : No
Menu
00:00:00.000 : :Chapter 01
00:09:04.125 : :Chapter 02
00:16:07.508 : :Chapter 03
00:24:11.156 : :Chapter 04
00:30:48.720 : :Chapter 05
00:38:39.190 : :Chapter 06
00:45:48.286 : :Chapter 07
00:52:40.614 : :Chapter 08
01:00:01.722 : :Chapter 09
01:09:45.930 : :Chapter 10
01:18:29.620 : :Chapter 11
01:27:48.178 : :Chapter 12

x264 log

x264 [info]: frame I:1108 Avg QP:15.64 size: 73868
x264 [info]: frame P:23579 Avg QP:17.25 size: 31744
x264 [info]: frame B:109116 Avg QP:19.41 size: 11680
x264 [info]: consecutive B-frames: 1.2% 1.0% 3.5% 13.0% 17.4% 27.4% 10.0% 8.4% 8.5% 3.3% 1.2% 1.1% 1.2% 1.1% 0.7% 1.0%
x264 [info]: ref P L0: 41.2% 9.2% 17.5% 6.9% 6.0% 4.1% 3.9% 2.0% 2.0% 1.5% 1.5% 1.1% 1.1% 0.9% 1.0% 0.0%
x264 [info]: ref B L0: 64.6% 13.0% 7.1% 3.7% 2.8% 2.3% 1.8% 1.1% 0.9% 0.8% 0.7% 0.6% 0.4% 0.1%
x264 [info]: ref B L1: 92.2% 7.8%
Описание серий">

Скриншоты Описание серий

Millennium Part 01-02: "Девушка с татуировкой дракона / Мужчины, которые ненавидят женщин / The Girl with the Dragon Tattoo / Män som hatar kvinnor. Part 01-02"
Микаэль Блумквист — талантливый журналист, который верой и правдой добивается справедливости в самых скандальных делах — неожиданно терпит фиаско в своей деятельности, в результате чего вынужден отбыть срок лишения свободы.
В то же время влиятельный человек Хенрик Вангер поручает ему дело о пропаже его племянницы, которая таинственным образом исчезла из имения Вангеров, и о которой вот уже множество лет нет никаких новостей. А попытки Хенрика разыскать родственницу так же не приводят к положительным результатам.
Будучи скептиком, Микаэль сначала не верит в удачу, но вскоре обнаруживает запутанную и леденящую кровь историю, связанную с семейством Вангеров. В этом журналисту помогает неформальная особа Лисбет Саландер, прослывшая не только гениальным умом, фотографической памятью, но и прекрасными хакерскими способностями.
Millennium Part 03-04: "Девушка, которая играла с огнем / The Girl Who Played with Fire / Flickan som lekte med elden. Part 01-02"
Поздно вечером в своей квартире застрелены журналист и его подруга - люди, изучавшие каналы поставки в Швецию секс-рабынь из Восточной Европы. Среди клиентов малопочтенного бизнеса замечены представители властных структур. Кажется очевидным, каким кругам была выгодна смерть этих двоих. Микаэл Блумквист начинает собственное расследование гибели своих коллег и друзей и вдруг узнает, что в убийстве подозревают его давнюю знакомую Лисбет Саландер, самую странную девушку на свете, склонную играть с огнем - к примеру, заливать его бензином. По всей Швеции идет охота на «убийцу-психопатку», но Лисбет не боится бросить вызов кому угодно - и мафии, и общественным структурам, и самой смерти.
Millennium Part 05-06: "Девушка, которая взрывала воздушные замки / Девушка растормошившая осиное гнездо / The Girl Who Kicked the Hornet's Nest / Luftslottet som sprängdes. Part 01-02"
Лисбет Саландер находится под неусыпным наблюдением в отделении интенсивной терапии шведской городской больницы. Она борется за жизнь и не только в физическом смысле: когда она почувствует себя достаточно хорошо, ей предстоит предстать перед судом по обвинению в трех убийствах и в покушении еще на одно. С помощью своего друга, журналиста Микаэля Блумквиста, она должна будет доказать свою невиновность и опознать продажных политиканов, из-за злоупотреблений которых страдают простые люди. А со своей стороны она готовится отомстить человеку, который пробовал убить ее и правительственным учреждениям, которые почти разрушили ее жизнь. Когда-то, она была жертвой. Теперь Лисбет Саландер готова ответить ударом на удар.
Цитата: писал(а):

  • За запись перевода 100ТВ спасибо teftel и HPotter
  • Заказ перевода у Юрия Немахова (июнь, октябрь, ноябрь 2016) - ylnian
  • За сборку дорог спасибо rammzez
  • Синхронизация переводов и русских субтитров - ylnian


[chi5o.com]_t_5436467.torrent
Торрент: Зарегистрирован ·  [ 2018-06-27 21:57 ] ·  6c9e8cce679b1ac0196c9c1566e5112a2a21b89a

80 KB

Статус: проверено
Скачан: 0 раз
Размер: 15.84 GB
Оценка: 
(Голосов: 0)
Сказали спасибо: 0  Спасибо
Похожие темы
[Профиль]    [ЛС]
Показать сообщения:    
Ответить на тему

Текущее время: Сегодня 11:25

Часовой пояс: GMT + 7



Вы не можете начинать темы
Вы не можете отвечать на сообщения
Вы не можете редактировать свои сообщения
Вы не можете удалять свои сообщения
Вы не можете голосовать в опросах
Вы не можете прикреплять файлы к сообщениям
Вы можете скачивать файлы


vidaXL Rollhocker Rolle Drehstuhl Arbeitsstuhl Hocker höhenverstellbar schwarz S | Conan 2018 06 06 Jodie Foster WEB x264-TBS [eztv] 19 минут | Mark Forums Read