Представления / Forestillinger / Сезон: 1 / Серии: 1-6 из 6 (Пер Флю / Per Fly) [2007, Дания, Драма, DVDRip] VO (datynet)

Ответить на тему
Статистика раздачи [Обновить пиров]
Размер:  3.72 GB   |    Зарегистрирован:  7 месяцев 3 дня   |    Скачан:  0 раз

Полного источника не было: 2 месяца 6 дней

 
   
 
 
 
Автор Сообщение

chi5o.com

Создавать темы 18-Июн-2018 23:50

[Цитировать]

Представления / Forestillinger
Год выхода: 2007
Страна: Дания
Жанр: Драма
Продолжительность: 6 x ~ 00:58:30
Перевод: Любительский (одноголосый закадровый) datynet
Режиссёр: Пер Флю / Per Fly
В ролях: Мадс Вилле, Соня Рихтер, Сара Йорт Дитлевсен, Пернилла Аугуст, Еспер Кристенсен, Деян Чукич, Бенедикте Хансен, Даг Малмберг, Пер Флю, Педер Билле, Педер Хольм Йохансен, Эллен Найман, Джон Мартинес, Мари Бролин Тани, Мартин Джейкоб Петерсен, Харриет Андерссон, Жакс Лауритсен
Описание: В одном из театров Копенгагена режиссёр-новатор Марко ставит спектакль "Венера и Адонис" по одноимённой поэме Шекспира. В то же самое время за кулисами разгораются не менее пылкие страсти, чем на сцене, плетутся интриги, в которые вовлекаются не только актёры Якоб, Таня, Ева, руководитель театра Йенс, но и сам режиссёр Марко. Каждая серия представляет собой рассказ одного из участников постановки о происходящих событиях, его отношении к ним и к окружающим его людям.
Доп. информация: Озвучка: datynet
Перевод: adelstein_s
Ссылка на предыдущие и альтернативные раздачи: [url=tracker.php?f=189,2366,842,819&nm=Forestillinger]http://Torrentc/forum/tracker.php?f=189,2366,842,819&nm=Forestillinger[/url]
Сэмпл: http://multi-up.com/897402
Качество: DVDRip
Формат файла: AVI
Видео кодек: XviD
Аудио кодек: MP3
Видео: 640x352 (1.82:1), 25 fps, XviD build 50 ~1295 kbps avg, 0.23 bit/pixel
Аудио: 44.100 kHz, MPEG Layer 3, 2 ch, ~256.00 kbps avg
Субтитры: отсутствуют

Список серий

1. Якоб / Jakob
2. Таня / Tanja
3. Катрин / Katrin
4. Ева / Eva
5. Йенс / Jens
6. Марко / Marko

MediaInfo

Представления\Forestillinger-1-Jakob.avi
Format : AVI
Format/Info : Audio Video Interleave
File size : 653 MiB
Duration : 58mn 30s
Overall bit rate : 1 562 Kbps
Writing application : FairUse Wizard - http://fairusewizard.com
Writing library : VirtualDub build 34753/release
Video
ID : 0
Format : MPEG-4 Visual
Format profile : Simple@L3
Format settings, BVOP : No
Format settings, QPel : No
Format settings, GMC : No warppoints
Format settings, Matrix : Default (H.263)
Codec ID : XVID
Codec ID/Hint : XviD
Duration : 58mn 30s
Bit rate : 1 296 Kbps
Width : 640 pixels
Height : 352 pixels
Display aspect ratio : 16:9
Frame rate : 25.000 fps
Resolution : 24 bits
Colorimetry : 4:2:0
Scan type : Progressive
Bits/(Pixel*Frame) : 0.230
Stream size : 542 MiB (83%)
Writing library : XviD 1.2.1 (UTC 2008-12-04)
Audio
ID : 1
Format : MPEG Audio
Format version : Version 1
Format profile : Layer 3
Codec ID : 55
Codec ID/Hint : MP3
Duration : 58mn 30s
Bit rate mode : Constant
Bit rate : 256 Kbps
Channel(s) : 2 channels
Sampling rate : 44.1 KHz
Resolution : 16 bits
Stream size : 107 MiB (16%)
Alignment : Split accross interleaves
Interleave, duration : 40 ms (1.00 video frame)
Interleave, preload duration : 500 ms

Внимание! Раздача ведётся путём добавления новых серий

Внимание! Раздача ведётся путём добавления новых серий; при каждом добавлении создётся новый торрент. Чтобы начать докачку новой серии, пользователям необходимо сделать следующее:
(1) остановить скачивание,
(2) удалить старый торрент у себя из клиента (старые серии удалять не надо),
(3) скачать новый торрент и запустить его у себя в клиенте вместо старого, при этом указать клиенту путь в старую папку куда и должно происходить скачивание новых серий.
Ваш клиент при этом должен произвести хеширование (проверку) старой папки (если не производит сам - помогите ему сделать это), и будет докачивать только те серии которых у вас ещё нет. Старые серии при этом не удаляются, а продолжают раздаваться!
Eсли вы уже удалили старые серии, то предотвратить повторную закачку старых серий можно, отжав галочку в соответсвующих местах при запуске нового торрента.

Скриншоты



[chi5o.com]_t_4519560.torrent
Торрент: Зарегистрирован ·  [ 2018-06-18 23:48 ] ·  6356d627b1b59a51c92c1649194b0da844c9414c

20 KB

Статус: проверено
Скачан: 0 раз
Размер: 3.72 GB
Оценка: 
(Голосов: 0)
Сказали спасибо: 0  Спасибо
Похожие темы
[Профиль]    [ЛС]
Показать сообщения:    
Ответить на тему

Текущее время: Сегодня 11:34

Часовой пояс: GMT + 7



Вы не можете начинать темы
Вы не можете отвечать на сообщения
Вы не можете редактировать свои сообщения
Вы не можете удалять свои сообщения
Вы не можете голосовать в опросах
Вы не можете прикреплять файлы к сообщениям
Вы можете скачивать файлы


Josh Duhamel | MacBreakZ 5.31 | Anjos e Demônios (Angels & Demons) 2009