Мария Верн / Maria Wern / Сезон: 3 / Серии: 1-2 из 2 (Эрик Лейжонборг / Erik Leijonborg) [2013, Швеция, криминал, HDTVRip] MVO (Русский репортаж)

Ответить на тему
Статистика раздачи [Обновить пиров]
Размер:  2.93 GB   |    Зарегистрирован:  7 месяцев 3 дня   |    Скачан:  0 раз

Полного источника не было: Никогда

 
   
 
 
 
Автор Сообщение

chi5o.com

Создавать темы 18-Июн-2018 23:50

[Цитировать]

Мария Верн: Мечта привела вас в заблуждение / Мария Верн: Заблудившийся во снах / Maria Wern: Drömmen förde dig vilse
Год выхода: 2013
Страна: Швеция
Жанр: криминал
Продолжительность: 01:26:16
Перевод: Профессиональный (многоголосый закадровый) /Русский репортаж/
Режиссёр: Эрик Лейжонборг / Erik Leijonborg
В ролях: Эва Рёзе, Аллан Свенссон, Эрик Йоханссон, Петер Перски, Ульф Фриберг, Таня Лорентцон, Оскар Петтерссон, Matilda Wännström, Emma Melkersson, Йозефина Альханко
Описание: Какие причины могут быть для убийства обычной женщины? Неверность мужу? А может быть явная и открытая нелюбовь к секс меньшинствам? Именно между этими двумя причинами убийства приходится строить своё расследование Марии Верн. Девушка расследует убийство женщины, чьё тело нашли в окрестностях одного города. И только Мария находит более менее адекватный путь расследования, так сразу совершается другое преступление, которое абсолютно не вяжется с предпологаемым мотивом, но явно связано с предыдущей жертвой. А за ним ещё и ещё убийства. Мария ищет убийцу, а возможно, и нескольких преступников.
[url=tracker.php?g=foreign_serials&nm=Maria%20Wern]Ссылка на предыдущие и альтернативные раздачи[/url]

Сэмпл: http://sendfile.su/1239346
Качество: HDTVRip
Формат файла: AVI
Видео: 720x400 (16:9), 25 fps, XviD, ~2226 kbps avg, 0.270 bit/pixel
Аудио: [Русский] AC3, 48 kHz, 2 ch, 192 kbps
Субтитры: отсутствуют-

MediaInfo

ОбщееПолное имя : C:\Users\User\Desktop\Maria Wern\Maria Wern Drömmen förde dig vilse.aviФормат файла : AVIФормат файла/Информация : Audio Video InterleaveРазмер файла : 1,46 ГбайтПродолжительность : 1 ч. 26 м.Общий поток : 2427 Кбит/секПрограмма кодирования : VirtualDubMod 1.5.10.3 | www.virtualdub-fr.org || (build 2550/release)Библиотека кодирования : VirtualDubMod build 2550/release
ВидеоИдентификатор : 0Формат файла : MPEG-4 VisualПрофиль формата : Advanced Simple@L5Параметр BVOP формата : 1Параметр QPel формата : НетПараметр GMC формата : Без точки переходаПараметр матрицы формата : Default (MPEG)Идентификатор кодека : XVIDИдентификатор кодека/Подсказка : XviDПродолжительность : 1 ч. 26 м.Битрейт : 2226 Кбит/секШирина : 720 пикселейВысота : 400 пикселейСоотношение сторон : 16:9Частота кадров : 25,000 кадров/секЦветовое пространство : YUVСубдискретизация насыщенности : 4:2:0Битовая глубина : 8 битТип развёртки : ПрогрессивнаяМетод сжатия : С потерямиБит/(Пиксели*Кадры) : 0.270Размер потока : 1,34 Гбайт (92%)Библиотека кодирования : XviD 1.2.1 (UTC 2008-12-04)
АудиоИдентификатор : 1Формат файла : AC-3Формат файла/Информация : Audio Coding 3Расширение режима : CM (complete main)Параметр Endianness формата : BigИдентификатор кодека : 2000Продолжительность : 1 ч. 26 м.Вид битрейта : ПостоянныйБитрейт : 192 Кбит/секКаналы : 2 каналаРасположение каналов : Front: L RЧастота : 48,0 КГцБитовая глубина : 16 битМетод сжатия : С потерямиРазмер потока : 118 Мбайт (8%)Выравнивание : Разделение по промежуткамПродолжительность промежутка : 40 мс. (1,00 видеокадр)Время предзагрузки промежутка : 500 мс.
-

Скриншоты



[chi5o.com]_t_5235807.torrent
Торрент: Зарегистрирован ·  [ 2018-06-18 23:48 ] ·  8165d1619cb50e177bf99b43c6c4ab29228e9add

15 KB

Статус: проверено
Скачан: 0 раз
Размер: 2.93 GB
Оценка: 
(Голосов: 0)
Сказали спасибо: 0  Спасибо
Похожие темы
[Профиль]    [ЛС]
Показать сообщения:    
Ответить на тему

Текущее время: Сегодня 12:02

Часовой пояс: GMT + 7



Вы не можете начинать темы
Вы не можете отвечать на сообщения
Вы не можете редактировать свои сообщения
Вы не можете удалять свои сообщения
Вы не можете голосовать в опросах
Вы не можете прикреплять файлы к сообщениям
Вы можете скачивать файлы


Unique Notification | Accessori portati | Captulo 490 : Poderosos rivales independientes! El comienzo de la