Себастьян Бергман / Sebastian Bergman / Den fördömde / Сезон: 2 / Серии: 1-2 из 2 (Микаэль Йорт, Даниэль Эспиноса) [2013, Швеция, детектив, триллер, драма, HDRip] DVO (Project Web Mania)

Ответить на тему
Статистика раздачи [Обновить пиров]
Размер:  2.6 GB   |    Зарегистрирован:  7 месяцев 3 дня   |    Скачан:  3 раза

Полного источника не было: 1 месяц 10 дней

 
   
 
 
 
Автор Сообщение

chi5o.com

Создавать темы 18-Июн-2018 23:49

[Цитировать]

Себастьян Бергман / Sebastian Bergman / Den fördömde
Год выхода: 2013
Страна: Швеция
Жанр: детектив, триллер, драма
Продолжительность: ~01:30:00
Перевод: Любительский (двухголосый закадровый) Project_Web_Mania по переводу Е.Володиной
Режиссёр: Микаэль Йорт, Даниэль Эспиноса
В ролях: РОЛЬФ ЛАССГОРД в роли Себастьяна Бергмана
МОА СИЛЕН в роли Вани Литнер
ТОМАС ЛАУСТИОЛА в роли Торкеля Хёглунда
КРИСТОФЕР ВАГЕЛИН в роли Билли Росена
ГУННЕЛЬ ФРЕД в роли Урсулы Андерссон
ДЖЕССИКА САНДЕН в роли Джессики
ЯКОБ НУРДЕНСОН в роли Хокана Риддарстолпе
АНДРЕА ЭДВАРДС в роли Катарины Лемминг
ИДА ЭНГВОЛЛЬ в роли Сандры Хеед
МАРТИН АЛЬЯГА в роли Якоба Фредрикссона
ДАНИЭЛЬ ЛАРССОН в роли Ронни Амундсена
Описание: Себастьян Бергман — профайлер, криминальный психолог, составляющий психологический портрет преступника. Бергман раскрыл несколько громких преступлений, он — автор нескольких книг, знаменит, ездит по стране с лекциями и при всём при этом он абсолютно одинок, и глубоко несчастен. Семейная трагедия лишила его целей в жизни, и он ищет забвения в работе. Вот только работать с ним не хочет ни один полицейский, поскольку он — нетерпим, авторитарен, и всегда говорит вслух то, что думает. При появлении Бергмана полицейские начинают нетерпеливо поскрипывать зубами и отводить глаза — такую глубокую симпатию он вызывает у людей в форме.
Ссылка на предыдущие и альтернативные раздачи: [url=tracker.php?g=foreign_serials&nm=%D1%E5%E1%E0%F1%F2%FC%FF%ED%20%C1%E5%F0%E3%EC%E0%ED]http://Torrentc/forum/tracker.php?g=foreign_serials...3%EC%E0%ED[/url]
Сэмпл: http://multi-up.com/1106305
Качество: HDRip
Формат файла: AVI
Видео: XviD, 720х400, 25 fps, 1908 kbps, 0.265 bit/pixel
Аудио: AC3, 192 Kbps, 48.0 KHz, 2 channels
Субтитры: отсутствуют

MediaInfo

02.season.Sebastyan.Bergman.DVO\01_serya_DVO.aviФормат файла : AVIФормат файла/Информация : Audio Video InterleaveРазмер файла : 1,30 ГбайтПродолжительность : 1 ч. 28 м.Общий поток : 2110 Кбит/секПрограмма кодирования : VirtualDubMod 1.5.10.2 (build 2540/release)Библиотека кодирования : VirtualDubMod build 2540/release
ВидеоИдентификатор : 0Формат файла : MPEG-4 VisualПрофиль формата : Advanced Simple@L5Параметр BVOP формата : 3Параметр QPel формата : ДаПараметр GMC формата : 3 точки переходаПараметр матрицы формата : Default (H.263)Идентификатор кодека : XVIDИдентификатор кодека/Подсказка : XviDПродолжительность : 1 ч. 28 м.Битрейт : 1909 Кбит/секШирина : 720 пикс.Высота : 400 пикс.Соотношение сторон : 16:9Частота кадров : 25,000 кадр/секЦветовое пространство : YUVПодвыборка цветности : 4:2:0Битовая глубина : 8 битТип развёртки : ПрогрессивнаяМетод сжатия : С потерямиБит/(Пиксели*Кадры) : 0.265Размер потока : 1,18 Гбайт (90%)Библиотека кодирования : XviD 1.2.1 (UTC 2008-12-04)
АудиоИдентификатор : 1Формат файла : AC-3Формат файла/Информация : Audio Coding 3Расширение режима : CM (complete main)Идентификатор кодека : 2000Продолжительность : 1 ч. 28 м.Вид битрейта : ПостоянныйБитрейт : 192 Кбит/секКаналы : 2 каналаРасположение каналов : Front: L RЧастота : 48,0 КГцБитовая глубина : 16 битМетод сжатия : С потерямиРазмер потока : 121 Мбайт (9%)Выравнивание : Разделение по промежуткамПродолжительность промежутка : 40 мс. (1,00 видеокадр)Время предзагрузки промежутка : 500 ms

Скриншоты



[chi5o.com]_t_5243256.torrent
Торрент: Зарегистрирован ·  [ 2018-06-18 23:48 ] ·  537c717b52e4a3424393fa54bb64fd33f261813b

14 KB

Статус: проверено
Скачан: 3 раз
Размер: 2.6 GB
Оценка: 
(Голосов: 0)
Сказали спасибо: 0  Спасибо
Похожие темы
[Профиль]    [ЛС]
Показать сообщения:    
Ответить на тему

Текущее время: Сегодня 11:30

Часовой пояс: GMT + 7



Вы не можете начинать темы
Вы не можете отвечать на сообщения
Вы не можете редактировать свои сообщения
Вы не можете удалять свои сообщения
Вы не можете голосовать в опросах
Вы не можете прикреплять файлы к сообщениям
Вы можете скачивать файлы


Last Post | Regarder | Mon Ket [BDRip] [Streaming] [Telecharger]