Телохранители VIP / Livvagterne / Сезон: 2 / Серии: 1-10 из 10 (Миккел Серуп) [2010, Дания, детектив, DVDRip-AVC] MVO (Русский репортаж) + Original

Ответить на тему
Статистика раздачи [Обновить пиров]
Размер:  8.67 GB   |    Зарегистрирован:  7 месяцев 3 дня   |    Скачан:  1 раз

Полного источника не было: 2 месяца 5 дней

 
   
 
 
 
Автор Сообщение

chi5o.com

Создавать темы 18-Июн-2018 23:49

[Цитировать]

Телохранители VIP / Livvagterne
Год выхода: 2010
Страна: Дания
Жанр: детектив
Продолжительность: ~01:00:00
Перевод: Профессиональный (многоголосый закадровый) /Русский репортаж/
Запись звука: teftel, HPotter, Beer kolesik Drinkers, #Antisnl#
Сведение: Beer kolesik Drinkers

Режиссёр: Миккел Серуп
В ролях: Андре Бабикян, Дитте Грабёль, Эллен Хеллингсё, Расмус Бьерк и др.
Описание: Отдел датской национальной полиции занимается личной защитой V.I.P. персон. В основном это политики и члены королевской семьи. В обязанности отдела также входят меры по предотвращению терористических актов и раскрытию шпионских сетей.
Ссылка на предыдущие и альтернативные раздачи: [url=tracker.php?f=189,2366,842,819&nm=Livvagterne]http://Torrentc/forum/tracker.php?f=189,2366,842,819&nm=Livvagterne[/url]
Сэмпл: http://sendfile.su/1292052
Качество: DVDRip-AVC
Формат файла: MKV
Видео кодек: H.264
Аудио кодек: AC3
Видео: 720x400, 25.000 fps, 1 563 kbps
Аудио Rus: 48 kHz, AC3, 2 ch, 192 kbps
Аудио Dan: 48 kHz, AC3, 6 ch, 448 kbps
Субтитры: Шведские, Английские

MediaInfo

GeneralUnique ID : 219180014333736327497669697839490624532 (0xA4E4890837F966BDA7F8FC1A85336C14)Complete name : D:\Раздачи\Livvagterne.S02.DVDRip-BkD\Livvagterne.S02E01.DVDRip.Rus.Dan-BkD.mkvFormat : MatroskaFormat version : Version 4 / Version 2File size : 898 MiBDuration : 56 min 57 sOverall bit rate : 2 205 kb/sEncoded date : UTC 2016-12-20 08:29:33Writing application : mkvmerge v8.2.0 ('World of Adventure') 64bitWriting library : libebml v1.3.1 + libmatroska v1.4.2
VideoID : 1Format : AVCFormat/Info : Advanced Video CodecFormat profile : High@L3Format settings, CABAC : YesFormat settings, ReFrames : 4 framesCodec ID : V_MPEG4/ISO/AVCDuration : 56 min 57 sBit rate : 1 563 kb/sWidth : 720 pixelsHeight : 400 pixelsDisplay aspect ratio : 16:9Frame rate mode : ConstantFrame rate : 25.000 FPSColor space : YUVChroma subsampling : 4:2:0Bit depth : 8 bitsScan type : ProgressiveBits/(Pixel*Frame) : 0.217Stream size : 636 MiB (71%)Writing library : x264 core 116 r2074 2641b9eEncoding settings : cabac=1 / ref=2 / deblock=1:-2:-2 / analyse=0x3:0x113 / me=hex / subme=6 / psy=1 / psy_rd=1.00:0.25 / mixed_ref=1 / me_range=16 / chroma_me=1 / trellis=1 / 8x8dct=1 / cqm=0 / deadzone=6,6 / fast_pskip=1 / chroma_qp_offset=-4 / threads=3 / sliced_threads=0 / nr=0 / decimate=0 / interlaced=0 / bluray_compat=0 / constrained_intra=0 / bframes=3 / b_pyramid=2 / b_adapt=1 / b_bias=0 / direct=1 / weightb=1 / open_gop=0 / weightp=1 / keyint=250 / keyint_min=25 / scenecut=40 / intra_refresh=0 / rc_lookahead=30 / rc=crf / mbtree=1 / crf=20.0 / qcomp=0.80 / qpmin=0 / qpmax=69 / qpstep=4 / ip_ratio=1.10 / aq=1:0.50Default : YesForced : No
Audio #1ID : 2Format : AC-3Format/Info : Audio Coding 3Mode extension : CM (complete main)Format settings, Endianness : BigCodec ID : A_AC3Duration : 56 min 56 sBit rate mode : ConstantBit rate : 192 kb/sChannel(s) : 2 channelsChannel positions : Front: L RSampling rate : 48.0 kHzFrame rate : 31.250 FPS (1536 spf)Compression mode : LossyStream size : 78.2 MiB (9%)Language : RussianDefault : YesForced : No
Audio #2ID : 3Format : AC-3Format/Info : Audio Coding 3Mode extension : CM (complete main)Format settings, Endianness : BigCodec ID : A_AC3Duration : 56 min 56 sBit rate mode : ConstantBit rate : 448 kb/sChannel(s) : 6 channelsChannel positions : Front: L C R, Side: L R, LFESampling rate : 48.0 kHzFrame rate : 31.250 FPS (1536 spf)Compression mode : LossyStream size : 182 MiB (20%)Language : DanishDefault : NoForced : No
Text #1ID : 4Format : UTF-8Codec ID : S_TEXT/UTF8Codec ID/Info : UTF-8 Plain TextDuration : 56 min 8 sBit rate : 44 b/sCount of elements : 406Stream size : 18.3 KiB (0%)Language : SwedishDefault : YesForced : No
Text #2ID : 5Format : UTF-8Codec ID : S_TEXT/UTF8Codec ID/Info : UTF-8 Plain TextDuration : 55 min 45 sBit rate : 40 b/sCount of elements : 376Stream size : 16.5 KiB (0%)Language : EnglishDefault : NoForced : No

Скриншоты



[chi5o.com]_t_5328790.torrent
Торрент: Зарегистрирован ·  [ 2018-06-18 23:48 ] ·  18b03fc64107b4153599f6c9da426db7a294fece

23 KB

Статус: проверено
Скачан: 1 раз
Размер: 8.67 GB
Оценка: 
(Голосов: 0)
Сказали спасибо: 0  Спасибо
Похожие темы
[Профиль]    [ЛС]
Показать сообщения:    
Ответить на тему

Текущее время: Сегодня 11:28

Часовой пояс: GMT + 7



Вы не можете начинать темы
Вы не можете отвечать на сообщения
Вы не можете редактировать свои сообщения
Вы не можете удалять свои сообщения
Вы не можете голосовать в опросах
Вы не можете прикреплять файлы к сообщениям
Вы можете скачивать файлы


Baixar toque para celular | Barry (2016) | Windows 10 Enterprise 2016 LTSB X64 ESD en-US JAN 2019 {Gen2}